Ссылка на приватное зеркало нашего сайта всего за 1$. Внимание количество ограничено!!!

2 сезон

iTunes

1 сезон

1

iTunes

iTunes

iTunes

1 сезон

RePack

30

ИГРА 18+

pack

ВАЖНО

!!Акция!!

Alien_RageХит недели

RePack

MK11
pack

Забери бонус

RePack

jed

!!Акция!!

Alien_Rage

RePack

fifa19

RePack

Assassins Creed: Odyssey

RePack

NEED FOR SPEED™ PAYBACK

4 сезон

9 сезон

Бесстыжие 9 сезон

Все сериалы

все сериалы на PB.wtf

RePack

FAR CRY 5
  

Ладога - дорога жизни /4 серия из 4 (Александр Велединский) [2014 г., Драма, военный, SATRip] pb.wtf

Ладога - дорога жизни через торрент pb.wtf

Размер: 2.59 GB | Добавлен: 6 лет 8 мес. назад | Торрент скачан:940 раз
Скачать  

27-01-2014 18:17 Ладога - дорога жизни Скачать торрент  

Ладога - дорога жизни
Год выпуска: 2014
Страна: Россия
Выпущено: Мармот-фильм
Жанр: Драма, военный
Продолжительность: 4 х ~ 00:45:00
Язык: Русский

Режиссер: Александр Велединский
Сценарий: Олег Маловичко



В ролях: Ксения Раппопорт, Алексей Серебряков, Андрей Мерзликин, Дмитрий Назаров, Юрий Кузнецов, Виталий Коваленко, Яков Шамшин, Анна Блинова, Филипп Ершов, Олег Федоров, Алексей Ведерников, Юлия Ауг

Описание: Блокадный Ленинград. Зима 1941-го. Советская контрразведка узнает, что немцы готовят диверсию на «Дороге жизни» — единственном пути, по которому в город доставляется продовольствие и другие грузы. Скорее всего, диверсант — один из водителей «полуторок», работающих на замерзшем Ладожском озере. Найти и остановить врага должен капитан НКВД Сергиенко...

Качество: SATRip
Формат: AVI
Видео кодек: DivX 5
Аудио кодек: MP3
Видео 1: DivX 5, ~ 1 799 Kbps, 720x400, 25.000 fps, (Bits/Pixel): 0.250 |1-2 серии|
Видео 2: DivX 5, ~ 1 601 Kbps, 704x400, 25.000 fps, (Bits/Pixel): 0.227 |3-4 серии|
Аудио: MP3 , 2 ch, 128 Kbps, 48.0 KHz

Код:

Внимание! Раздача ведётся путём добавления новых серий; при каждом добавлении создётся новый торрент. Чтобы начать докачку новой серии, пользователям необходимо сделать следующее:
Остановить скачивание,
Удалить старый торрент у себя из клиента (старые серии удалять не надо),
Скачать новый торрент и запустить его у себя в клиенте вместо старого, при этом указать клиенту путь в старую папку куда и должно происходить скачивание новых серий.
Ваш клиент при этом должен произвести хеширование (проверку) старой папки (если не производит сам - помогите ему сделать это), и будет докачивать только те серии которых у вас ещё нет. Старые серии при этом не удаляются, а продолжают раздаваться!

Eсли вы уже удалили старые серии, то предотвратить повторную закачку старых серий можно, отжав галочку в соответсвующих местах при запуске нового торрента. По возможности, желательно не удалять старые серии как можно дольше чтобы релизёр не столько продолжал раздавать старые серии, а смог сконцентрироваться на новых.

eneral
Complete name : /home/sb753/files/Ladoga/Ladoga.02.avi
Format : AVI
Format/Info : Audio Video Interleave
File size : 775 MiB
Duration : 55mn 54s
Overall bit rate : 1 937 Kbps
Writing library : VirtualDub build 35491/release

Video
ID : 0
Format : MPEG-4 Visual
Format settings, BVOP : 1
Format settings, QPel : No
Format settings, GMC : No warppoints
Format settings, Matrix : Default (H.263)
Muxing mode : Packed bitstream
Codec ID : DX50
Codec ID/Hint : DivX 5
Duration : 55mn 54s
Bit rate : 1 799 Kbps
Width : 720 pixels
Height : 400 pixels
Display aspect ratio : 16:9
Frame rate : 25.000 fps
Color space : YUV
Chroma subsampling : 4:2:0
Bit depth : 8 bits
Scan type : Progressive
Compression mode : Lossy
Bits/(Pixel*Frame) : 0.250
Stream size : 720 MiB (93%)
Writing library : DivX 6.8.5 (UTC 2009-08-20)

Audio
ID : 1
Format : MPEG Audio
Format version : Version 1
Format profile : Layer 3
Mode : Joint stereo
Mode extension : MS Stereo
Codec ID : 55
Codec ID/Hint : MP3
Duration : 55mn 54s
Bit rate mode : Constant
Bit rate : 128 Kbps
Channel(s) : 2 channels
Sampling rate : 48.0 KHz
Compression mode : Lossy
Stream size : 51.2 MiB (7%)
Alignment : Split accross interleaves
Interleave, duration : 40 ms (1.00 video frame)
Interleave, preload duration : 500 ms
pb.wtf



Скачать Ладога - дорога жизни через торрент http://i3.imageban.ru/out/2014/01/27/911163cc39a4eceb7aeb53d1144b5d59.png Скачать фильм Ладога - дорога жизни через торрент бесплантно в хорошем качестве Описание: Блокадный Ленинград. Зима 1941-го. Советская контрразведка узнает, что немцы готовят диверсию на «Дороге жизни» — единственном ... 9.8 10 52
Info! Золотая раздача, скачанное не засчитывается.
Торрент: Зарегистрирован [2014-01-28 15:03] · скачан: 940 раз
Статус: √ проверено
Размер: 2.59 GB
Как cкачать? Как скачать Ладога - дорога жизни через торрент | qTorrent

% Раздел Тема Автор DL S | L
Наши сериалы [ 16.84 GB ] Ладога - дорога жизни / Серии: 1-4 из 4 [2014 военный HDTV 1080i] bober100 Скачать
1 | 0
Наши фильмы (HD, WEB-DL 720p, 1080p) [ 7.39 GB ] Ладога - дорога жизни [2014 военный HDTVRip 720p] кэп Скачать
1 | 0


Последний раз редактировалось: кэп (2014-01-28 15:08), всего редактировалось 2 раз(а)

28-11-2019 20:33  

Отключить всю рекламу на сайте

28-01-2014 13:43 Ладога - дорога жизни Скачать торрент  

спасибо!!!pb.wtf



01-02-2014 07:23 Ладога - дорога жизни Скачать торрент  

глянем, заценим, спасибоpb.wtf



    Дорогой пользователь! Огромная просьба, поблагодарите релизера, оцените раздачу и оставьте свои комментарий, если Вы скачали Ладога - дорога жизни через торрент бесплатно! Внесите свою лепту в развитие PiratBit!
    Комментировать посты могут только пользователи прошедшие не сложную регистрацию
    Показать сообщения:    

    Ладога - дорога жизни через торрент
    Скачать бесплатно Ладога - дорога жизни
    Ладога - дорога жизни скачать торрент
    Ладога - дорога жизни смотреть онлайн
    Cкачать фильм Ладога - дорога жизни бесплатно
    Ладога - дорога жизни скачать торрент в хорошем качестве
    Ладога - дорога жизни смотреть онлайн бесплатно в хорошем качестве


    Вы не можете начинать темы
    Вы не можете отвечать на сообщения
    Вы не можете редактировать свои сообщения
    Вы не можете удалять свои сообщения
    Вы не можете голосовать в опросах
    Вы не можете прикреплять файлы к сообщениям
    Вы можете скачивать файлы