Ссылка на приватное зеркало нашего сайта всего за 1$. Внимание количество ограничено!!!

2 сезон

iTunes

1 сезон

1

2 сезон

2 сезон

iTunes

1 сезон

RePack

30

Новинка

ВАЖНО

ИГРА 18+

pack

RePack

MK11
pack

Забери бонус

RePack

jed

!!Акция!!

Alien_Rage

RePack

fifa19

RePack

Assassins Creed: Odyssey

RePack

NEED FOR SPEED™ PAYBACK

4 сезон

9 сезон

Бесстыжие 9 сезон

Все сериалы

все сериалы на PB.wtf

RePack

FAR CRY 5
  

Тихоокеанский рубеж / Pacific Rim ( Гильермо дель Торо ) [ 2013, Фантастика, Фэнтези, Боевик, BDRemux 1080p ] Дублированный (Русский, Украинский), Многоголосый закадровый-«Пиратский» pb.wtf

Тихоокеанский рубеж через торрент pb.wtf

Размер: 43.4 GB | Добавлен: 6 лет 10 мес. назад | Торрент скачан:103 раза
Скачать  

27-01-2014 20:37 Тихоокеанский рубеж Скачать торрент  

Тихоокеанский рубеж / Pacific Rim
«Чтобы сражаться с монстрами, мы создали монстров»

Информация о фильме:

  • Год выпуска: 2013
  • Страна: США | Warner Bros., Legendary Pictures, 32Ten Studios
  • Жанр: Фантастика, Фэнтези, Боевик, Приключения
  • Продолжительность: 02:07:53
  • Перевод: Дублированный (Русский, Украинский), Многоголосый закадровый, Одноголосый закадровый
  • Cубтитры: Русский (forced, full, voronine), украинский (forced, full), английский (full, SDH, SDH-Colored), французский [ Вшитые отключаемые ]

    Актеры:

    Чарли Ханнэм, Идрис Эльба, Ринко Кикути, Роберт Казински, Макс Мартини, Чарли Дэй, Берн Горман, Клифтон Коллинз мл., Рон Перлман, Диего Клаттенхофф, Брэд Хенке, Ларри Джо Кэмпбелл, Мана Ашида ...

  • Режиссер: Пьер Соффин, Крис Рено / Pierre Coffin, Chris Renaud
    Описание:

    Когда из морских глубин поднялись легионы чудовищ, известных как Кайдзу, началась война, которой суждено было забрать миллионы жизней и свести «человеческие ресурсы» почти к нулю всего за несколько лет. Чтобы сражаться с пришельцами, было создано специальное оружие: огромные роботы, названные Джегерами, они управлялись одновременно двумя пилотами, чьи сознания соединены с помощью нейронной связи. Но даже Джегеры оказываются почти бессильны перед лицом безжалостных Кайдзу. На грани поражения у защитников человечества нет выбора, кроме как обратиться к двум весьма сомнительным героям — никому не нужному бывшему пилоту и неопытному стажеру — которые объединились, чтобы повести в бой некогда легендарного, но сейчас устаревшего Джегера. Вместе они оказываются единственной надеждой человечества, последним препятствием перед надвигающимся апокалипсисом.



    Тех данные :


  • Качество видео: BDRemux
  • Формат видео: MPEG-4
  • Видео кодек: AVC/H.264
  • Аудио кодек: DTS / Dolby Digital Audio Russian
  • Видео: 1920х1080p, ~23902 kbps , 23,976 fps , 0.775 bit/pixel
  • Аудио 1 : AC3 5.1, 640 kbps, 48 kHz [Русский - дублированный «Blu-ray CEE»]
  • Аудио 2: AC3 5.1, 640 kbps, 48 kHz [Украинский - дублированный «Blu-ray CEE»]
  • Аудио 3: DTS-HD MA 7.1, 5489 kbps, 48 kHz [Русский - многоголосый закадровый «Пиратский»]
  • Аудио 4: DTS-HD MA 7.1, 5494 kbps, 48 kHz [Русский - одноголосый закадровый «Ю. Сербин»]
  • Аудио 5: DTS-HD MA 7.1, 5502 kbps, 48 kHz [Русский - одноголосый закадровый «Л. Володарский»]
  • Аудио 6: DTS-HD MA 7.1, 5461 kbps, 48 kHz [Английский - оригинал]
  • Аудио 7: AC3 2.0, 192 kbps, 48 kHz [Английский - комментарий]



    Полное имя : D:Тихоокеанский.рубеж-Pacific.Rim.(2013).BDRemux.[1080p].mkv
    Формат : Matroska
    Версия формата : Version 2
    Размер файла : 43,4 Гбайт
    Продолжительность : 2 ч. 11 м.
    Режим общего битрейта : Переменный
    Общий поток : 47,3 Мбит/сек
    Название фильма : Pacific Rim (2013) / Lelya_K for NNM-Club
    Дата кодирования : UTC 2013-11-08 22:14:28
    Программа кодирования : mkvmerge v5.7.0 ('The Whirlwind') built on Aug 7 2012 14:11:40
    Библиотека кодирования : libebml v1.2.3 + libmatroska v1.3.0

    Видео
    Идентификатор : 1
    Формат : AVC
    Формат/Информация : Advanced Video Codec
    Профиль формата : High@L4.1
    Параметр CABAC формата : Да
    Параметр ReFrames формата : 2 кадра
    Параметр GOP формата : M=1, N=10
    Идентификатор кодека : V_MPEG4/ISO/AVC
    Продолжительность : 2 ч. 11 м.
    Вид битрейта : Переменный
    Битрейт : 38,5 Мбит/сек
    Ширина : 1920 пикселей
    Высота : 1080 пикселей
    Соотношение сторон : 16:9
    Режим частоты кадров : Постоянный
    Частота кадров : 23,976 кадра/сек
    Цветовое пространство : YUV
    Субдискретизация насыщенности : 4:2:0
    Битовая глубина : 8 бит
    Тип развёртки : Прогрессивная
    Бит/(Пиксели*Кадры) : 0.775
    Размер потока : 35,3 Гбайт (81%)
    Заголовок : Тихоокеанский.рубеж-Pacific.Rim.(2013).BDRemux.[1080p]
    Язык : English
    Default : Да
    Forced : Нет

    Аудио #1
    Идентификатор : 2
    Формат : AC-3
    Формат/Информация : Audio Coding 3
    Расширение режима : CM (complete main)
    Параметр Endianness формата : Big
    Идентификатор кодека : A_AC3
    Продолжительность : 2 ч. 11 м.
    Вид битрейта : Постоянный
    Битрейт : 640 Кбит/сек
    Каналы : 6 каналов
    Расположение каналов : Front: L C R, Side: L R, LFE
    Частота : 48,0 КГц
    Битовая глубина : 16 бит
    Метод сжатия : С потерями
    Размер потока : 601 Мбайт (1%)
    Заголовок : AC3 5.1 / 640 kbps / Dub (Blu-ray CEE)
    Язык : Russian
    Default : Да
    Forced : Нет

    Аудио #2
    Идентификатор : 3
    Формат : AC-3
    Формат/Информация : Audio Coding 3
    Расширение режима : CM (complete main)
    Параметр Endianness формата : Big
    Идентификатор кодека : A_AC3
    Продолжительность : 2 ч. 11 м.
    Вид битрейта : Постоянный
    Битрейт : 640 Кбит/сек
    Каналы : 6 каналов
    Расположение каналов : Front: L C R, Side: L R, LFE
    Частота : 48,0 КГц
    Битовая глубина : 16 бит
    Метод сжатия : С потерями
    Размер потока : 601 Мбайт (1%)
    Заголовок : AC3 5.1 / 640 kbps / Dub (Blu-ray CEE)
    Язык : Ukrainian
    Default : Нет
    Forced : Нет

    Аудио #3
    Идентификатор : 4
    Формат : DTS
    Формат/Информация : Digital Theater Systems
    Профиль формата : MA / Core
    Идентификатор кодека : A_DTS
    Продолжительность : 2 ч. 11 м.
    Вид битрейта : Переменный
    Битрейт : 1597 Кбит/сек / 1510 Кбит/сек
    Каналы : 8 каналов / 6 каналов
    Расположение каналов : Front: L C R, Side: L R, Back: L R, LFE / Front: L C R, Side: L R, LFE
    Частота : 48,0 КГц
    Битовая глубина : 24 бит
    Метод сжатия : Без потерь / Lossy
    Заголовок : DTS-HD MA 7.1 / 5489 kbps / MVO (Пиратский)
    Язык : Russian
    Default : Нет
    Forced : Нет

    Аудио #4
    Идентификатор : 5
    Формат : DTS
    Формат/Информация : Digital Theater Systems
    Профиль формата : MA / Core
    Идентификатор кодека : A_DTS
    Продолжительность : 2 ч. 11 м.
    Вид битрейта : Переменный
    Битрейт : 1597 Кбит/сек / 1510 Кбит/сек
    Каналы : 8 каналов / 6 каналов
    Расположение каналов : Front: L C R, Side: L R, Back: L R, LFE / Front: L C R, Side: L R, LFE
    Частота : 48,0 КГц
    Битовая глубина : 24 бит
    Метод сжатия : Без потерь / Lossy
    Заголовок : DTS-HD MA 7.1 / 5494 kbps / AVO (Ю. Сербин)
    Язык : Russian
    Default : Нет
    Forced : Нет

    Аудио #5
    Идентификатор : 6
    Формат : DTS
    Формат/Информация : Digital Theater Systems
    Профиль формата : MA / Core
    Идентификатор кодека : A_DTS
    Продолжительность : 2 ч. 11 м.
    Вид битрейта : Переменный
    Битрейт : 1597 Кбит/сек / 1510 Кбит/сек
    Каналы : 8 каналов / 6 каналов
    Расположение каналов : Front: L C R, Side: L R, Back: L R, LFE / Front: L C R, Side: L R, LFE
    Частота : 48,0 КГц
    Битовая глубина : 24 бит
    Метод сжатия : Без потерь / Lossy
    Заголовок : DTS-HD MA 7.1 / 5502 kbps / AVO (Л. Володарский)
    Язык : Russian
    Default : Нет
    Forced : Нет

    Аудио #6
    Идентификатор : 7
    Формат : DTS
    Формат/Информация : Digital Theater Systems
    Профиль формата : MA / Core
    Идентификатор кодека : A_DTS
    Продолжительность : 2 ч. 11 м.
    Вид битрейта : Переменный
    Битрейт : 1597 Кбит/сек / 1510 Кбит/сек
    Каналы : 8 каналов / 6 каналов
    Расположение каналов : Front: L C R, Side: L R, Back: L R, LFE / Front: L C R, Side: L R, LFE
    Частота : 48,0 КГц
    Битовая глубина : 24 бит
    Метод сжатия : Без потерь / Lossy
    Заголовок : DTS-HD MA 7.1 / 5461 kbps / Original
    Язык : English
    Default : Нет
    Forced : Нет

    Аудио #7
    Идентификатор : 8
    Формат : AC-3
    Формат/Информация : Audio Coding 3
    Профиль формата : Dolby Digital
    Расширение режима : CM (complete main)
    Параметр Endianness формата : Big
    Идентификатор кодека : A_AC3
    Продолжительность : 2 ч. 11 м.
    Вид битрейта : Постоянный
    Битрейт : 192 Кбит/сек
    Каналы : 2 канала
    Расположение каналов : Front: L R
    Частота : 48,0 КГц
    Битовая глубина : 16 бит
    Метод сжатия : С потерями
    Размер потока : 180 Мбайт (0%)
    Заголовок : AC3 2.0 / 192 kbps / Commentary
    Язык : English
    Default : Нет
    Forced : Нет

    Текст #1
    Идентификатор : 9
    Формат : UTF-8
    Идентификатор кодека : S_TEXT/UTF8
    Идентификатор кодека/Информация : UTF-8 Plain Text
    Заголовок : Forced
    Язык : Russian
    Default : Да
    Forced : Нет

    Текст #2
    Идентификатор : 10
    Формат : UTF-8
    Идентификатор кодека : S_TEXT/UTF8
    Идентификатор кодека/Информация : UTF-8 Plain Text
    Заголовок : Full
    Язык : Russian
    Default : Нет
    Forced : Нет

    Текст #3
    Идентификатор : 11
    Формат : UTF-8
    Идентификатор кодека : S_TEXT/UTF8
    Идентификатор кодека/Информация : UTF-8 Plain Text
    Заголовок : voronine
    Язык : Russian
    Default : Нет
    Forced : Нет

    Текст #4
    Идентификатор : 12
    Формат : UTF-8
    Идентификатор кодека : S_TEXT/UTF8
    Идентификатор кодека/Информация : UTF-8 Plain Text
    Заголовок : Forced
    Язык : Ukrainian
    Default : Нет
    Forced : Нет

    Текст #5
    Идентификатор : 13
    Формат : UTF-8
    Идентификатор кодека : S_TEXT/UTF8
    Идентификатор кодека/Информация : UTF-8 Plain Text
    Заголовок : Full
    Язык : Ukrainian
    Default : Нет
    Forced : Нет

    Текст #6
    Идентификатор : 14
    Формат : UTF-8
    Идентификатор кодека : S_TEXT/UTF8
    Идентификатор кодека/Информация : UTF-8 Plain Text
    Заголовок : Full
    Язык : English
    Default : Нет
    Forced : Нет

    Текст #7
    Идентификатор : 15
    Формат : UTF-8
    Идентификатор кодека : S_TEXT/UTF8
    Идентификатор кодека/Информация : UTF-8 Plain Text
    Заголовок : SDH
    Язык : English
    Default : Нет
    Forced : Нет

    Текст #8
    Идентификатор : 16
    Формат : UTF-8
    Идентификатор кодека : S_TEXT/UTF8
    Идентификатор кодека/Информация : UTF-8 Plain Text
    Заголовок : SDH (Colored)
    Язык : English
    Default : Нет
    Forced : Нет

    Текст #9
    Идентификатор : 17
    Формат : UTF-8
    Идентификатор кодека : S_TEXT/UTF8
    Идентификатор кодека/Информация : UTF-8 Plain Text
    Заголовок : Full
    Язык : French
    Default : Нет
    Forced : Нет

    Меню
    00:00:00.000 : en:Chapter 1
    00:09:09.131 : en:Chapter 2
    00:18:35.823 : en:Chapter 3
    00:23:04.340 : en:Chapter 4
    00:33:00.395 : en:Chapter 5
    00:42:44.895 : en:Chapter 6
    00:50:01.665 : en:Chapter 7
    01:01:09.666 : en:Chapter 8
    01:14:45.104 : en:Chapter 9
    01:22:21.311 : en:Chapter 10
    01:32:09.941 : en:Chapter 11
    01:41:55.609 : en:Chapter 12
    01:51:37.857 : en:Chapter 13
    01:59:21.028 : en:Chapter 14
    02:02:17.830 : en:Chapter 15


    pb.wtf



  • Скачать Тихоокеанский рубеж через торрент http://i59.fastpic.ru/big/2014/0126/74/4e6f3f96ffd4ab79cc85575193bbbb74.png Скачать фильм Тихоокеанский рубеж через торрент бесплантно в хорошем качестве Описание: Когда из морских глубин поднялись легионы чудовищ, известных как Кайдзу, началась война, которой суждено было забрать миллионы ... 10 10 6
    Info! Золотая раздача, скачанное не засчитывается.
    Торрент: Зарегистрирован [2014-01-27 20:37] · скачан: 103 раз
    Статус: √ проверено
    Размер: 43.4 GB
    Как cкачать? Как скачать Тихоокеанский рубеж через торрент | qTorrent

    28-11-2019 20:33  

    Отключить всю рекламу на сайте

      Дорогой пользователь! Огромная просьба, поблагодарите релизера, оцените раздачу и оставьте свои комментарий, если Вы скачали Тихоокеанский рубеж через торрент бесплатно! Внесите свою лепту в развитие PiratBit!
      Комментировать посты могут только пользователи прошедшие не сложную регистрацию
      Показать сообщения:    

      Тихоокеанский рубеж через торрент
      Скачать бесплатно Тихоокеанский рубеж
      Тихоокеанский рубеж скачать торрент
      Тихоокеанский рубеж смотреть онлайн
      Cкачать фильм Тихоокеанский рубеж бесплатно
      Тихоокеанский рубеж скачать торрент в хорошем качестве
      Тихоокеанский рубеж смотреть онлайн бесплатно в хорошем качестве


      Вы не можете начинать темы
      Вы не можете отвечать на сообщения
      Вы не можете редактировать свои сообщения
      Вы не можете удалять свои сообщения
      Вы не можете голосовать в опросах
      Вы не можете прикреплять файлы к сообщениям
      Вы можете скачивать файлы