2 сезон

iTunes

MVO

1

2 сезон

iTunes

iTunes

1 сезон

RePack

30

Новинка

ВАЖНО

ИГРА 18+

pack

RePack

MK11
pack

Легкие деньги

RePack

jed

RePack

fifa19

RePack

RDR2

RePack

NEED FOR SPEED™ PAYBACK

4 сезон

9 сезон

Бесстыжие 9 сезон

Все сериалы

все сериалы на PB.wtf

RePack

FAR CRY 5

Anonymous, доброй ночи, мы не успеваем собрать деньги на оплату серверов за декабрь и январь, помогите нам пожалуйста в это трудное время. В качестве благодарности мы отключим Вам всю рекламу на сайте (укажите свой ник в строку Ваше имя)!

×
  
Magnet ссылка

Телекинез (Расширенная версия) / Carrie (Extended Cut) (Кимберли Пирс) [2013 г., Ужасы, драма, экранизация, HDRip, Дубляж |iTunes|] pb.wtf

Телекинез через торрент pb.wtf

Размер: 2.06 GB | Добавлен: 6 лет 11 мес. назад | Торрент скачан:1093 раза
Скачать  

28-01-2014 05:30 Телекинез Скачать торрент  

Телекинез / Carrie

Год выпуска: 2013
Страна: США
Выпущено: Metro-Goldwyn-Mayer, Screen Gems
Жанр: Ужасы, драма, экранизация
Продолжительность: 01:40:56
Перевод: Дубляж |iTunes|

Режиссер: Кимберли Пирс
Продюссер: Дж. Майлз Дэйл, Кевин Мишер
Сценарий: Лоуренс Д. Коэн, Роберто Агирре-Сакаса, Стивен Кинг
Бюджет: $30 000 000
Премьера в мире: 7 октября 2013

IMDB 6.10 (37 873)


В ролях: Клои Грэйс Моретц, Джулианна Мур, Джуди Грир, Энсел Эльгорт, Портия Даблдэй, Габриэлла Уайлд, Коннор Прайс, Алекс Расселл, Мишель Нолден, Макс Топплин, Синтия Престон

Описание: Невзрачная старшеклассница по имени Кэрри с рождения обладает способностями телекинеза. Давление со стороны фанатично религиозной мамочки и постоянные издевки сверстников лишь способствует развитию ее сверхъестественных способностей. На выпускном одноклассники решают жестоко подшутить над ней, что приводит к фатальным последствиям.

Доп. информация: UNRATED версия включает альтернативную концовку. Полный перевод! Альтернативная концовка озвучена А.Дольским.

Сэмпл

Качество: HDRip
Формат: AVI
Видео кодек: XviD
Аудио кодек: AC3
Видео: XviD, 2 066 Kbps, 720x304, 23.976 fps, (Bits/Pixel): 0.394
Аудио#1: Russian: AC3, 6 ch, 384 Кбит/с, 48,0 КГц
Аудио#2: English: AC3, 6 ch, 448 Кбит/с, 48,0 КГц

General
Complete name : /home/sb753/files/Carrie.UNRATED.2013.D.HDRip.2100Mb.avi
Format : AVI
Format/Info : Audio Video Interleave
Format profile : OpenDML
File size : 2.06 GiB
Duration : 1h 40mn
Overall bit rate : 2 916 Kbps
Writing application : VirtualDubMod 1.5.10.2 (build 2540/release)
Writing library : VirtualDubMod build 2540/release

Video
ID : 0
Format : MPEG-4 Visual
Format profile : Advanced Simple@L5
Format settings, BVOP : 2
Format settings, QPel : No
Format settings, GMC : No warppoints
Format settings, Matrix : Custom
Codec ID : XVID
Codec ID/Hint : XviD
Duration : 1h 40mn
Bit rate : 2 066 Kbps
Width : 720 pixels
Height : 304 pixels
Display aspect ratio : 2.35:1
Frame rate : 23.976 fps
Color space : YUV
Chroma subsampling : 4:2:0
Bit depth : 8 bits
Scan type : Progressive
Compression mode : Lossy
Bits/(Pixel*Frame) : 0.394
Stream size : 1.46 GiB (71%)
Writing library : XviD 1.2.1 (UTC 2008-12-04)

Audio #1
ID : 1
Format : AC-3
Format/Info : Audio Coding 3
Mode extension : CM (complete main)
Format settings, Endianness : Big
Codec ID : 2000
Duration : 1h 40mn
Bit rate mode : Constant
Bit rate : 384 Kbps
Channel(s) : 6 channels
Channel positions : Front: L C R, Side: L R, LFE
Sampling rate : 48.0 KHz
Bit depth : 16 bits
Compression mode : Lossy
Stream size : 277 MiB (13%)
Alignment : Split accross interleaves
Interleave, duration : 42 ms (1.00 video frame)
Interleave, preload duration : 500 ms

Audio #2
ID : 2
Format : AC-3
Format/Info : Audio Coding 3
Mode extension : CM (complete main)
Format settings, Endianness : Big
Codec ID : 2000
Duration : 1h 40mn
Bit rate mode : Constant
Bit rate : 448 Kbps
Channel(s) : 6 channels
Channel positions : Front: L C R, Side: L R, LFE
Sampling rate : 48.0 KHz
Bit depth : 16 bits
Compression mode : Lossy
Stream size : 323 MiB (15%)
Alignment : Split accross interleaves
Interleave, duration : 42 ms (1.00 video frame)
Interleave, preload duration : 500 ms
pb.wtf



Скачать Телекинез через торрент http://i4.imageban.ru/out/2014/01/28/ff4e06b4e19cca21d0fe7420331db9a4.png Скачать фильм Телекинез через торрент бесплантно в хорошем качестве Описание: Невзрачная старшеклассница по имени Кэрри с рождения обладает способностями телекинеза. Давление со стороны фанатично религиозной ... 9.6 10 37
Info! Золотая раздача, скачанное не засчитывается.
Торрент: Зарегистрирован [2014-01-28 05:31] · скачан: 1 093 раз
Статус: √ проверено
Размер: 2.06 GB
Как cкачать? Как скачать Телекинез через торрент | UTorrent

% Раздел Тема Автор DL S | L
T Фильмы (мультфильмы) cо спонсором показа (Новинки AVI/MKV) [ 1.39 GB ] Телекинез / Yeomryeok [2018 WEB-DLRip Любительский ] oleg8 Скачать
1 | 0
Фильмы 2013 [DVDrip, WEB-DLRip, HDrip] [ 2.19 GB ] Телекинез / Carrie [2013 BDRip-AVC] Dub + Original + Sub potroks Скачать
1 | 0
Фильмы 2013 (Звук TS, Cam, VO, DVO) [ 1.86 GB ] Телекинез / Carrie [2013 BDRip от PashaUp / Смешной перевод] Ворон Скачать
1 | 0
Фильмы (DVD фильмы) [ 7.27 GB ] Телекинез / Carrie [2013 DVD9] R5 voovaz Скачать
1 | 0
Фильмы 2013 [DVDrip, WEB-DLRip, HDrip] [ 1.46 GB ] Телекинез / Carrie [2013 BDRip-AVC] [Extended Cut] Dub () + Eng + Subs sokol_ok Скачать
2 | 0
Фильмы 2013 [DVDrip, WEB-DLRip, HDrip] [ 2.18 GB ] Телекинез / Carrie [2013 BDRip-AVC] [Extended Cut] Dub () + AVO + Eng + Subs sokol_ok Скачать
2 | 0
Фильмы (Blu-ray, BD-Remux, HDDVD) [ 23.13 GB ] Телекинез / Carrie [2013 BD-Remux ] Бумер Скачать
1 | 0


Последний раз редактировалось: кэп (2014-01-28 08:01), всего редактировалось 1 раз

28-11-2019 20:33  

Отключить всю рекламу на сайте

28-01-2014 06:54 Телекинез Скачать торрент  

Хороший фильм... Правда больше как драма, чем ужасы pb.wtf



28-01-2014 07:06 Телекинез Скачать торрент  

посмотрю только из-за Кинга.pb.wtf



28-01-2014 07:18 Телекинез Скачать торрент  

Другая концовка? Лол, качаю.
Спасибо :)pb.wtf



29-01-2014 16:00 Телекинез Скачать торрент  

очень грустно от концовки !!!pb.wtf



    Дорогой пользователь! Огромная просьба, поблагодарите релизера, оцените раздачу и оставьте свои комментарий, если Вы скачали Телекинез через торрент бесплатно! Внесите свою лепту в развитие PiratBit!
    Комментировать посты могут только пользователи прошедшие не сложную регистрацию
    Показать сообщения:    

    Телекинез через торрент
    Скачать бесплатно Телекинез
    Телекинез скачать торрент
    Телекинез смотреть онлайн
    Cкачать фильм Телекинез бесплатно
    Телекинез скачать торрент в хорошем качестве
    Телекинез смотреть онлайн бесплатно в хорошем качестве


    Вы не можете начинать темы
    Вы не можете отвечать на сообщения
    Вы не можете редактировать свои сообщения
    Вы не можете удалять свои сообщения
    Вы не можете голосовать в опросах
    Вы не можете прикреплять файлы к сообщениям
    Вы можете скачивать файлы