2 сезон

iTunes

MVO

1

2 сезон

iTunes

iTunes

1 сезон

RePack

30

Новинка

ВАЖНО

ИГРА 18+

pack

RePack

MK11
pack

Легкие деньги

RePack

jed

RePack

fifa19

RePack

RDR2

RePack

NEED FOR SPEED™ PAYBACK

4 сезон

9 сезон

Бесстыжие 9 сезон

Все сериалы

все сериалы на PB.wtf

RePack

FAR CRY 5

Anonymous, доброй ночи, мы не успеваем собрать деньги на оплату серверов за декабрь и январь, помогите нам пожалуйста в это трудное время. В качестве благодарности мы отключим Вам всю рекламу на сайте (укажите свой ник в строку Ваше имя)!

×
  
Magnet ссылка

Астрал: Глава 2 / Insidious: Chapter 2 (Джеймс Ван / James Wan) [2013 г., Ужасы, триллер, BDRip-AVC] Dub (BD CEE) + Original (Eng) + Sub (rus., eng.) pb.wtf

Астрал: Глава 2 через торрент pb.wtf

Размер: 1.46 GB | Добавлен: 6 лет 11 мес. назад | Торрент скачан:1073 раза
Скачать  

15-01-2014 00:41 Астрал: Глава 2 Скачать торрент  

«Он вернулся за тобой»
Астрал: Глава 2 / Insidious: Chapter 2
Год выпуска: 2013
Страна: США / Sony Pictures Entertainment, Blumhouse Productions, Entertainment One, FilmDistrict
Жанр: Ужасы, триллер,
Продолжительность: 01:45:52
Перевод: Дубляж [Лицензия]
Субтитры: Русские, английские (Full + SDH + SDH-Colored)

Режиссер: Джеймс Ван / James Wan



В ролях: Патрик Уилсон, Роуз Бирн, Лин Шэй, Тай Симпкинс, Барбара Херши, Стив Култер, Ли Уоннелл, Энгус Сэмпсон, Эндрю Эстор, Хэнк Харрис,

Описание: Не так давно главные герои мистической киноленты переехали в новый дом. Это место принесло немало страданий семье Ламберт. Сложно представить себе, что ощущали люди, зная, что в их доме рядом с ними живут враждебно настроенные призраки. Сейчас же Ламберты твердо уверены, что все их кошмары и страх остались в прошлом, а темные силы не станут проявляться в их теперешней жизни. Герои решают провести каникулы у матери главы семейства. К несчастью, на новом месте тоже начали происходить странные и пугающие вещи. Мужчина понимает, что не смог избавить родных от призраков. Они следуют за ним повсюду. Что же предпринять на этот раз? Какие беды теперь принесет потусторонний мир невинным людям? Остается только догадываться…

Качество: BDRip-AVC
Формат: MKV
Видео кодек: H.264
Аудио кодек: AC3
Видео: 996x416 (2,40:1), 23,976 fps, 1073 Кbps, 0.108 bit/pixel
Аудио#1: 48 kHz, AC3 Dolby Digital, 3/2 (L,C,R,l,r) + LFE ch, 448.00 kbps | RUS
Аудио#2: 48 kHz, AC3 Dolby Digital, 3/2 (L,C,R,l,r) + LFE ch, 448.00 kbps | ENG

Релиз группы:
Автор рипа: potroks




Общее
Уникальный идентификатор : 237057808577023136853015674790613143969 (0xB257AC576BA4604C86C0AAE2FAA0D1A1)
Полное имя : Astral.Glava.II.2013.DUAL.BDRip.x264.-HELLYWOOD..mkv
Формат : Matroska
Версия формата : Version 4 / Version 2
Размер файла : 1,46 Гбайт
Продолжительность : 1 ч. 45 м.
Общий поток : 1970 Кбит/сек
Название фильма : HELLYWOOD - rip by potroks
Дата кодирования : UTC 2014-01-15 00:27:36
Программа кодирования : mkvmerge v5.9.0 ('On The Loose') built on Dec 15 2012 16:39:58
Библиотека кодирования : libebml v1.3.0 + libmatroska v1.4.0

Видео
Идентификатор : 1
Формат : AVC
Формат/Информация : Advanced Video Codec
Профиль формата : High@L4.1
Параметр CABAC формата : Да
Параметр ReFrames формата : 12 кадров
Идентификатор кодека : V_MPEG4/ISO/AVC
Продолжительность : 1 ч. 45 м.
Битрейт : 1073 Кбит/сек
Ширина : 996 пикселей
Высота : 416 пикселей
Соотношение сторон : 2,40:1
Режим частоты кадров : Постоянный
Частота кадров : 23,976 кадра/сек
Цветовое пространство : YUV
Субдискретизация насыщенности : 4:2:0
Битовая глубина : 8 бит
Тип развёртки : Прогрессивная
Бит/(Пиксели*Кадры) : 0.108
Размер потока : 784 Мбайт (53%)
Заголовок : Insidious: Chapter 2
Библиотека кодирования : x264 core 130 r2273 b3065e6
Настройки программы : cabac=1 / ref=12 / deblock=1:-3:-3 / analyse=0x3:0x133 / me=umh / subme=11 / psy=1 / psy_rd=1.01:0.00 / mixed_ref=1 / me_range=48 / chroma_me=1 / trellis=2 / 8x8dct=1 / cqm=0 / deadzone=21,11 / fast_pskip=0 / chroma_qp_offset=-2 / threads=9 / lookahead_threads=6 / sliced_threads=0 / nr=0 / decimate=0 / interlaced=0 / bluray_compat=0 / constrained_intra=0 / bframes=13 / b_pyramid=2 / b_adapt=2 / b_bias=0 / direct=3 / weightb=1 / open_gop=0 / weightp=2 / keyint=250 / keyint_min=23 / scenecut=40 / intra_refresh=0 / rc_lookahead=60 / rc=2pass / mbtree=0 / bitrate=1073 / ratetol=1.0 / qcomp=0.70 / qpmin=0 / qpmax=69 / qpstep=4 / cplxblur=20.0 / qblur=0.5 / vbv_maxrate=20000 / vbv_bufsize=20000 / nal_hrd=none / ip_ratio=1.35 / pb_ratio=1.25 / aq=1:0.80
Язык : English
Default : Да
Forced : Нет

Аудио #1
Идентификатор : 2
Формат : AC-3
Формат/Информация : Audio Coding 3
Расширение режима : CM (complete main)
Параметр Endianness формата : Big
Идентификатор кодека : A_AC3
Продолжительность : 1 ч. 45 м.
Вид битрейта : Постоянный
Битрейт : 448 Кбит/сек
Каналы : 6 каналов
Расположение каналов : Front: L C R, Side: L R, LFE
Частота : 48,0 КГц
Битовая глубина : 16 бит
Метод сжатия : С потерями
Размер потока : 339 Мбайт (23%)
Заголовок : Dub | DD 5.1 @ 448 kbps - BD CEE
Язык : Russian
Default : Да
Forced : Да

Аудио #2
Идентификатор : 3
Формат : AC-3
Формат/Информация : Audio Coding 3
Расширение режима : CM (complete main)
Параметр Endianness формата : Big
Идентификатор кодека : A_AC3
Продолжительность : 1 ч. 45 м.
Вид битрейта : Постоянный
Битрейт : 448 Кбит/сек
Каналы : 6 каналов
Расположение каналов : Front: L C R, Side: L R, LFE
Частота : 48,0 КГц
Битовая глубина : 16 бит
Метод сжатия : С потерями
Размер потока : 339 Мбайт (23%)
Заголовок : Original | DD 5.1 @ 448 kbps
Язык : English
Default : Нет
Forced : Нет

Текст #1
Идентификатор : 4
Формат : UTF-8
Идентификатор кодека : S_TEXT/UTF8
Идентификатор кодека/Информация : UTF-8 Plain Text
Заголовок : Blu-ray CEE
Язык : Russian
Default : Нет
Forced : Нет

Текст #2
Идентификатор : 5
Формат : UTF-8
Идентификатор кодека : S_TEXT/UTF8
Идентификатор кодека/Информация : UTF-8 Plain Text
Язык : English
Default : Нет
Forced : Нет

Текст #3
Идентификатор : 6
Формат : UTF-8
Идентификатор кодека : S_TEXT/UTF8
Идентификатор кодека/Информация : UTF-8 Plain Text
Заголовок : SDH
Язык : English
Default : Нет
Forced : Нет

Текст #4
Идентификатор : 7
Формат : UTF-8
Идентификатор кодека : S_TEXT/UTF8
Идентификатор кодека/Информация : UTF-8 Plain Text
Заголовок : SDH-COLORED
Язык : English
Default : Нет
Forced : Нет

Меню
00:00:00.000 : en:00:00:00.000
00:12:45.890 : en:00:12:45.890
00:22:22.967 : en:00:22:22.967
00:26:03.228 : en:00:26:03.228
00:30:09.224 : en:00:30:09.224
00:37:31.583 : en:00:37:31.583
00:42:46.314 : en:00:42:46.314
00:48:49.468 : en:00:48:49.468
00:56:11.702 : en:00:56:11.702
00:59:41.661 : en:00:59:41.661
01:05:57.579 : en:01:05:57.579
01:14:33.344 : en:01:14:33.344
01:21:37.351 : en:01:21:37.351
01:27:31.413 : en:01:27:31.413
01:33:33.858 : en:01:33:33.858
01:38:59.433 : en:01:38:59.433
pb.wtf



Скачать Астрал: Глава 2 через торрент http://i59.fastpic.ru/big/2014/0115/78/0f0d0c764d2b9f7488bc49a55c99d778.png Скачать фильм Астрал: Глава 2 через торрент бесплантно в хорошем качестве Описание: Не так давно главные герои мистической киноленты переехали в новый дом. Это место принесло немало страданий семье Ламберт. Сложно ... 9.2 10 35
Info! Золотая раздача, скачанное не засчитывается.
Торрент: Зарегистрирован [2014-01-28 10:04] · скачан: 1 073 раз
Статус: √ проверено
Размер: 1.46 GB
Как cкачать? Как скачать Астрал: Глава 2 через торрент | UTorrent

% Раздел Тема Автор DL S | L
Фильмы (DVD фильмы) [ 6.25 GB ] Астрал: Глава 2 / Insidious: Chapter 2 [2013 DVD9] R5 voovaz Скачать
1 | 0
Фильмы (Blu-ray, BD-Remux, HDDVD) [ 23.74 GB ] Астрал: Глава 2 / Insidious: Chapter 2 [2013 BDRemux 1080p] Dub + AVO + VO + Original + Subs Ворон Скачать
1 | 0
Фильмы [HD 720p, 1080p] (Хороший звук DUB, MVO) [ 8.79 GB ] Астрал: Глава 2 / Insidious: Chapter 2 [2013 BDRip 720p] + VO [Doctor Joker] + Original Messa-fan Скачать
1 | 0
Фильмы [HD 720p, 1080p] (Хороший звук DUB, MVO) [ 10.59 GB ] Астрал: Глава 2 / Insidious: Chapter 2 [2013 BDRip 1080p] + VO [Doctor Joker] + Original Messa-fan Скачать
1 | 0
Фильмы 2013 [DVDrip, WEB-DLRip, HDrip] [ 1.46 GB ] Астрал: Глава 2 / Insidious: Chapter 2 [2013 HDRip ] [лицензия] Ворон Скачать
1 | 0


Последний раз редактировалось: potroks (2014-01-15 01:05), всего редактировалось 1 раз

28-11-2019 20:33  

Отключить всю рекламу на сайте

15-01-2014 00:51 Астрал: Глава 2 Скачать торрент  

potroks
Добавьте пожалуйста отчет MediaInfo
Как получить информацию по видеофайлу pb.wtf



    Дорогой пользователь! Огромная просьба, поблагодарите релизера, оцените раздачу и оставьте свои комментарий, если Вы скачали Астрал: Глава 2 через торрент бесплатно! Внесите свою лепту в развитие PiratBit!
    Комментировать посты могут только пользователи прошедшие не сложную регистрацию
    Показать сообщения:    

    Астрал: Глава 2 через торрент
    Скачать бесплатно Астрал: Глава 2
    Астрал: Глава 2 скачать торрент
    Астрал: Глава 2 смотреть онлайн
    Cкачать фильм Астрал: Глава 2 бесплатно
    Астрал: Глава 2 скачать торрент в хорошем качестве
    Астрал: Глава 2 смотреть онлайн бесплатно в хорошем качестве


    Вы не можете начинать темы
    Вы не можете отвечать на сообщения
    Вы не можете редактировать свои сообщения
    Вы не можете удалять свои сообщения
    Вы не можете голосовать в опросах
    Вы не можете прикреплять файлы к сообщениям
    Вы можете скачивать файлы