Ссылка на приватное зеркало нашего сайта всего за 1$. Внимание количество ограничено!!!

2 сезон

iTunes

1 сезон

1

2 сезон

2 сезон

iTunes

1 сезон

RePack

30

Ultimate

ВАЖНО

ИГРА 18+

pack

RePack

MK11
pack

Забери бонус

RePack

jed

!!Акция!!

Alien_Rage

RePack

fifa19

RePack

Assassins Creed: Odyssey

RePack

NEED FOR SPEED™ PAYBACK

4 сезон

9 сезон

Бесстыжие 9 сезон

Все сериалы

все сериалы на PB.wtf

RePack

FAR CRY 5
  

Великий Гэтсби / The Great Gatsby (Баз Лурман / Baz Luhrmann) [2013, драма, мелодрама, BD-Remux (1080p), DUB] [iTunes Russia] pb.wtf

Великий Гэтсби через торрент pb.wtf

Размер: 23.55 GB | Добавлен: 6 лет 9 мес. назад | Торрент скачан:133 раза
Скачать  

26-08-2013 07:43 Великий Гэтсби Скачать торрент  

Великий Гэтсби / The Great Gatsby

Год выпуска : 2013
Страна: Австралия, США
Жанр: драма, мелодрама
Продолжительность: 02:22:06
Перевод: Профессиональный (полное дублирование) [iTunes Russia]

Субтитры: Русские, английские, украинские
Режиссер: Баз Лурман / Baz Luhrmann
В ролях: Леонардо ДиКаприо (Jay Gatsby), Тоби Магуайр (Nick Carraway), Кэри Маллиган (Daisy Buchanan), Джоэл Эдгертон (Tom Buchanan), Айла Фишер (Myrtle Wilson), Джейсон Кларк (George Wilson), Элизабет Дебики (Jordan Baker), Каллэн МакОлифф (Teen Jay Gatsby), Джек Томпсон (Dr. Walter Perkins), Амитабх Баччан (Meyer Wolfsheim), Стив Бисли (Dan Cody), Ричард Картер (Herzog)
Описание: Весной 1922 года, в эпоху разлагающейся морали, блистательного джаза и «королей контрабандного алкоголя», Ник Каррауэй приезжает из Среднего Запада в Нью-Йорк. Преследуя собственную американскую мечту, он селится по соседству с таинственным, известным своими вечеринками миллионером Джеем Гэтсби, а на противоположном берегу бухты проживают его кузина Дэйзи и её муж, повеса и аристократ, Том Бьюкенен. Так Ник оказывается вовлечённым в захватывающий мир богатых - их иллюзий, любви и обманов. Он становится свидетелем происходящего в этом мире и пишет историю невозможной любви, вечных мечтаний и человеческой трагедии, которые являются отражением современных времен и нравов.
Рейтинг
kinopoisk.ru: 8.233 (60 402)
imdb.com: 7.40 (104 171)
MPAA: PG-13 - Детям до 13 лет просмотр не желателен
Качество: BD-Remux (1080p)
Формат: MKV
Видео кодек: AVC
Аудио кодек: AC3/DTS
Видео: AVC, 1920x1080 (16:9), 21113 kbps, 23,976 fps
Аудио №1: русский / AC3 / 5.1 / 48 kHz / 384 kbps / 16 bit
Аудио №2: украинский / AC3 / 2.0 / 48 kHz / 192 kbps / 16 bit
Аудио №3: английский / DTS-HD / 5.1 / 48 kHz / 1560 kbps / 16 bit

General
Unique ID : 210037332340242188036292307892388370609 (0x9E03B801EC0D6203A9CB03F1146A18B1)
Complete name : I:Великий.Гэтсби-The.Great.Gatsby.(2013).BDRemux.[1080p].mkv
Format : Matroska
Format version : Version 2
File size : 23.5 GiB
Duration : 2h 22mn
Overall bit rate mode : Variable
Overall bit rate : 23.7 Mbps
Encoded date : UTC 2013-08-22 06:04:37
Writing application : mkvmerge v5.7.0 ('The Whirlwind') built on Aug 7 2012 14:11:40
Writing library : libebml v1.2.3 + libmatroska v1.3.0

Video
ID : 1
Format : AVC
Format/Info : Advanced Video Codec
Format profile : High@L4.1
Format settings, CABAC : Yes
Format settings, ReFrames : 2 frames
Codec ID : V_MPEG4/ISO/AVC
Duration : 2h 22mn
Bit rate mode : Variable
Bit rate : 21.1 Mbps
Width : 1 920 pixels
Height : 1 080 pixels
Display aspect ratio : 16:9
Frame rate : 23.976 fps
Color space : YUV
Chroma subsampling : 4:2:0
Bit depth : 8 bits
Scan type : Progressive
Bits/(Pixel*Frame) : 0.425
Stream size : 21.0 GiB (89%)
Title : Великий.Гэтсби-The.Great.Gatsby.(2013).BDRemux.[1080p]
Language : English
Default : Yes
Forced : No

Audio #1
ID : 2
Format : AC-3
Format/Info : Audio Coding 3
Mode extension : CM (complete main)
Codec ID : A_AC3
Duration : 2h 22mn
Bit rate mode : Constant
Bit rate : 384 Kbps
Channel(s) : 6 channels
Channel positions : Front: L C R, Side: L R, LFE
Sampling rate : 48.0 KHz
Bit depth : 16 bits
Compression mode : Lossy
Stream size : 390 MiB (2%)
Title : AC3 5.1 / 384 kbps / Dub (iTunes Russia)
Language : Russian
Default : Yes
Forced : No

Audio #2
ID : 3
Format : AC-3
Format/Info : Audio Coding 3
Mode extension : CM (complete main)
Codec ID : A_AC3
Duration : 2h 22mn
Bit rate mode : Constant
Bit rate : 192 Kbps
Channel(s) : 2 channels
Channel positions : Front: L R
Sampling rate : 48.0 KHz
Bit depth : 16 bits
Compression mode : Lossy
Stream size : 195 MiB (1%)
Title : AC3 2.0 / 192 kbps / Dub (iTunes Russia)
Language : Ukrainian
Default : No
Forced : No

Audio #3
ID : 4
Format : DTS
Format/Info : Digital Theater Systems
Format profile : MA / Core
Codec ID : A_DTS
Duration : 2h 22mn
Bit rate mode : Variable
Bit rate : 1 561 Kbps / 1 510 Kbps
Channel(s) : 6 channels
Channel positions : Front: L C R, Side: L R, LFE
Sampling rate : 48.0 KHz
Bit depth : 16 bits
Compression mode : Lossless / Lossy
Title : DTS-HD MA 5.1 / 2183 kbps
Language : English
Default : No
Forced : No

Text #1
ID : 5
Format : UTF-8
Codec ID : S_TEXT/UTF8
Codec ID/Info : UTF-8 Plain Text
Title : Forced
Language : Russian
Default : Yes
Forced : No

Text #2
ID : 6
Format : UTF-8
Codec ID : S_TEXT/UTF8
Codec ID/Info : UTF-8 Plain Text
Title : Full
Language : Russian
Default : No
Forced : No

Text #3
ID : 7
Format : UTF-8
Codec ID : S_TEXT/UTF8
Codec ID/Info : UTF-8 Plain Text
Title : Forced
Language : Ukrainian
Default : No
Forced : No

Text #4
ID : 8
Format : UTF-8
Codec ID : S_TEXT/UTF8
Codec ID/Info : UTF-8 Plain Text
Title : Full
Language : Ukrainian
Default : No
Forced : No

Text #5
ID : 9
Format : UTF-8
Codec ID : S_TEXT/UTF8
Codec ID/Info : UTF-8 Plain Text
Title : Full
Language : English
Default : No
Forced : No

Text #6
ID : 10
Format : UTF-8
Codec ID : S_TEXT/UTF8
Codec ID/Info : UTF-8 Plain Text
Title : SDH
Language : English
Default : No
Forced : No

Text #7
ID : 11
Format : UTF-8
Codec ID : S_TEXT/UTF8
Codec ID/Info : UTF-8 Plain Text
Title : SDH (Colored)
Language : English
Default : No
Forced : No

Menu
00:00:00.000 : en:Chapter 1
00:11:04.080 : en:Chapter 2
00:22:55.832 : en:Chapter 3
00:34:26.898 : en:Chapter 4
00:44:48.727 : en:Chapter 5
00:55:36.332 : en:Chapter 6
01:06:20.643 : en:Chapter 7
01:18:27.786 : en:Chapter 8
01:31:13.926 : en:Chapter 9
01:44:11.954 : en:Chapter 10
01:56:35.154 : en:Chapter 11
02:05:46.121 : en:Chapter 12
02:09:40.981 : en:Chapter 13
pb.wtf



Скачать Великий Гэтсби через торрент http://i1.imageban.ru/out/2013/08/26/89348a60613f0a94d6094e1b4f8d79bd.png Скачать фильм Великий Гэтсби через торрент бесплантно в хорошем качестве Описание: Весной 1922 года, в эпоху разлагающейся морали, блистательного джаза и «королей контрабандного алкоголя», Ник Каррауэй приезжает ... 10 10 7
Info! Золотая раздача, скачанное не засчитывается.
Торрент: Зарегистрирован [2014-01-28 10:08] · скачан: 133 раз
Статус: √ проверено
Размер: 23.55 GB
Как cкачать? Как скачать Великий Гэтсби через торрент | qTorrent

% Раздел Тема Автор DL S | L
Ultra HD (UHD: 2K, 4K, 8K) — видео сверхвысокой чёткости [ 63.91 GB ] Великий Гэтсби / The Great Gatsby [2013 UHD BDRip 2160p] DUB + AVO [Ю.Сербин] sheker187 Скачать
2 | 0
Ultra HD (UHD: 2K, 4K, 8K) — видео сверхвысокой чёткости [ 70.92 GB ] Великий Гэтсби / The Great Gatsby [2013 UHD BD Remux 2160p] DUB [rus ukr] + AVO sheker187 Скачать
1 | 0
Фильмы [HD 720p, 1080p] (Хороший звук DUB, MVO) [ 7.76 GB ] Великий Гэтсби / The Great Gatsby [2013 BDRip 720p от _denis_100 / NNNB] DUB AVO + Original Eng +Sub 3xRus 3xEng _denis_100 Скачать
1 | 0
Фильмы [HD 720p, 1080p] (Хороший звук DUB, MVO) [ 13.29 GB ] Великий Гэтсби / The Great Gatsby [2013 BDRip DUB] [ Russia] лисяра Скачать
1 | 0

28-11-2019 20:33  

Отключить всю рекламу на сайте

    Дорогой пользователь! Огромная просьба, поблагодарите релизера, оцените раздачу и оставьте свои комментарий, если Вы скачали Великий Гэтсби через торрент бесплатно! Внесите свою лепту в развитие PiratBit!
    Комментировать посты могут только пользователи прошедшие не сложную регистрацию
    Показать сообщения:    

    Великий Гэтсби через торрент
    Скачать бесплатно Великий Гэтсби
    Великий Гэтсби скачать торрент
    Великий Гэтсби смотреть онлайн
    Cкачать фильм Великий Гэтсби бесплатно
    Великий Гэтсби скачать торрент в хорошем качестве
    Великий Гэтсби смотреть онлайн бесплатно в хорошем качестве


    Вы не можете начинать темы
    Вы не можете отвечать на сообщения
    Вы не можете редактировать свои сообщения
    Вы не можете удалять свои сообщения
    Вы не можете голосовать в опросах
    Вы не можете прикреплять файлы к сообщениям
    Вы можете скачивать файлы