2 сезон

iTunes

MVO

1

2 сезон

iTunes

iTunes

1 сезон

RePack

30

Новинка

ВАЖНО

ИГРА 18+

pack

RePack

MK11
pack

Легкие деньги

RePack

jed

RePack

fifa19

RePack

RDR2

RePack

NEED FOR SPEED™ PAYBACK

4 сезон

9 сезон

Бесстыжие 9 сезон

Все сериалы

все сериалы на PB.wtf

RePack

FAR CRY 5

Anonymous, добрый вечер, мы не успеваем собрать деньги на оплату серверов за декабрь и январь, помогите нам пожалуйста в это трудное время. В качестве благодарности мы отключим Вам всю рекламу на сайте (укажите свой ник в строку Ваше имя)!

×
  
Magnet ссылка

Транс / Trance (Дэнни Бойл / Danny Boyle) [ 2013 , Великобритания, Франция , триллер, драма, криминал , HDRip ] DUB |лицензия| pb.wtf

Транс через торрент pb.wtf

Размер: 1.46 GB | Добавлен: 6 лет 11 мес. назад | Торрент скачан:746 раз
Скачать  

31-07-2013 20:02 Транс Скачать торрент  

Транс / Trance

«В подсознании. Вне закона»

  • Год выпуска:2013
  • Страна:Великобритания, Франция
  • Жанр:триллер, драма, криминал, детектив
  • Продолжительность: 01:41:19
  • Перевод:Профессиональный (полное дублирование) |Лицензия|

  • Субтитры: Нет
    • Режиссер:Дэнни Бойл / Danny Boyle

  • В ролях:Джеймс МакЭвой (Simon), Венсан Кассель (Franck), Розарио Доусон (Elizabeth), Дэнни Сапани (Nate), Мэттью Кросс (Dominic), Вахаб Ахмед Шейх (Riz), Марк Полтимор (Francis Lemaitre), Таппенс Мидлтон (Young Woman in Blue Car), Саймон Кунц (Surgeon), Майкл Шэйффер (Security Guard #1), Тони Джайавардена (Security Guard #2), Винсент Монтуэль (Handsome Waiter)
    • Описание:
      Аукционер Саймон не в силах противостоять искушению - вступает в сговор с бандой грабителей и организует похищение уникального лота стоимостью в миллионы долларов. Однако налет оканчивается не совсем так, как он предполагал вначале. Аукционера оглушают ударом тупого предмета по голове, в результате которого он теряет какие бы то ни было воспоминания о том, что произошло.
      Разумеется, он также забывает, куда спрятал ценную картину. Пытками добиться ответа от ничего не понимающего Саймона не удается. Тогда главарь банды решает нанять психотерапевта, чтобы она смогла выудить ценную информацию из поврежденного мозга заложника. По мере того, как девушка пробивается сквозь нейронную защиту, ставки растут как на дрожжах. Границы между страстью и жестокостью, реальностью и вымыслом тускнеют и вовсе готовы испариться. В конечном итоге становится не ясно - кто же у кого в заложниках?

  • Рейтинг
    kinopoisk.ru: 7.592 (19 500)
    imdb.com: 7.00 (27 304)
    MPAA: R - Лицам до 17 лет обязательно присутствие взрослого
    • Качество:HDRip
    • Формат:AVI
    • Видео кодек: XviD
    • Аудио кодек: AC3
    • Видео: XviD, 720x304 (2.35:1), 1664 kbps, 23,976 fps, 0,317 bpp
    • Аудио: AC3 / 5.1 / 48 kHz / 384 kbps / 16 bit

    General
    Complete name : D:ТорентыTrans.2013.D.HDRip.1400MB.avi
    Format : AVI
    Format/Info : Audio Video Interleave
    File size : 1.46 GiB
    Duration : 1h 41mn
    Overall bit rate : 2 058 Kbps
    Writing application : VirtualDubMod 1.5.10.2 (build 2540/release)
    Writing library : VirtualDubMod build 2540/release

    Video
    ID : 0
    Format : MPEG-4 Visual
    Format profile : Advanced Simple@L5
    Format settings, BVOP : 2
    Format settings, QPel : No
    Format settings, GMC : No warppoints
    Format settings, Matrix : Default (MPEG)
    Codec ID : XVID
    Codec ID/Hint : XviD
    Duration : 1h 41mn
    Bit rate : 1 665 Kbps
    Width : 720 pixels
    Height : 304 pixels
    Display aspect ratio : 2.35:1
    Frame rate : 23.976 fps
    Color space : YUV
    Chroma subsampling : 4:2:0
    Bit depth : 8 bits
    Scan type : Progressive
    Compression mode : Lossy
    Bits/(Pixel*Frame) : 0.317
    Stream size : 1.18 GiB (81%)
    Writing library : XviD 1.2.1 (UTC 2008-12-04)

    Audio
    ID : 1
    Format : AC-3
    Format/Info : Audio Coding 3
    Mode extension : CM (complete main)
    Codec ID : 2000
    Duration : 1h 41mn
    Bit rate mode : Constant
    Bit rate : 384 Kbps
    Channel(s) : 6 channels
    Channel positions : Front: L C R, Side: L R, LFE
    Sampling rate : 48.0 KHz
    Bit depth : 16 bits
    Compression mode : Lossy
    Stream size : 278 MiB (19%)
    Alignment : Split accross interleaves
    Interleave, duration : 42 ms (1.00 video frame)
    Interleave, preload duration : 500 ms

    © Оформление by Vetalpb.wtf



  • Скачать Транс через торрент http://i2.imageban.ru/out/2013/08/01/4896f60093ae8b125a17c3a23352f130.png Скачать фильм Транс через торрент бесплантно в хорошем качестве Описание:Аукционер Саймон не в силах противостоять искушению - вступает в сговор с бандой грабителей и организует похищение уникального ... 9.4 10 79
    Info! Золотая раздача, скачанное не засчитывается.
    Торрент: Зарегистрирован [2014-01-28 10:57] · скачан: 746 раз
    Статус: √ проверено
    Размер: 1.46 GB
    Как cкачать? Как скачать Транс через торрент | UTorrent

    28-11-2019 20:33  

    Отключить всю рекламу на сайте

    01-08-2013 13:45 Транс Скачать торрент  

    Перевод на сайтах iTunes Russia, до лицухи ещё 2 недели
    А сам фильм хорош!!!pb.wtf



    01-08-2013 21:21 Транс Скачать торрент  

    makarevich писал(а):

    Перевод на сайтах iTunes Russia, до лицухи ещё 2 недели

    На 3 х лицуха я им верю.pb.wtf



    02-08-2013 13:17 Транс Скачать торрент  

    почему все время чистый звук вы пишите лицухой хотя нету источникаpb.wtf



      Дорогой пользователь! Огромная просьба, поблагодарите релизера, оцените раздачу и оставьте свои комментарий, если Вы скачали Транс через торрент бесплатно! Внесите свою лепту в развитие PiratBit!
      Комментировать посты могут только пользователи прошедшие не сложную регистрацию
      Показать сообщения:    

      Транс через торрент
      Скачать бесплатно Транс
      Транс скачать торрент
      Транс смотреть онлайн
      Cкачать фильм Транс бесплатно
      Транс скачать торрент в хорошем качестве
      Транс смотреть онлайн бесплатно в хорошем качестве


      Вы не можете начинать темы
      Вы не можете отвечать на сообщения
      Вы не можете редактировать свои сообщения
      Вы не можете удалять свои сообщения
      Вы не можете голосовать в опросах
      Вы не можете прикреплять файлы к сообщениям
      Вы можете скачивать файлы