Ссылка на приватное зеркало нашего сайта всего за 1$. Внимание количество ограничено!!!

2 сезон

iTunes

1 сезон

1

iTunes

iTunes

iTunes

1 сезон

RePack

30

ИГРА 18+

pack

ВАЖНО

!!Акция!!

Alien_RageХит недели

RePack

MK11
pack

Забери бонус

RePack

jed

!!Акция!!

Alien_Rage

RePack

fifa19

RePack

Assassins Creed: Odyssey

RePack

NEED FOR SPEED™ PAYBACK

4 сезон

9 сезон

Бесстыжие 9 сезон

Все сериалы

все сериалы на PB.wtf

RePack

FAR CRY 5
  

Гадкий я 2 / Despicable Me 2 (Пьер Соффин / Pierre Coffin , Крис Рено / Chris Renaud) [2013 г., Мультфильм, фантастика, комедия, криминал, приключения, семейный, BDRip-AVC, Дубляж, Лицензия] pb.wtf

Гадкий я 2 через торрент pb.wtf

Размер: 2.19 GB | Добавлен: 6 лет 8 мес. назад | Торрент скачан:1708 раз
Скачать  

20-10-2013 08:19 Гадкий я 2 Скачать торрент  

Гадкий я 2 / Despicable Me 2
Год выпуска: 2013
Страна: США / Universal Pictures, llumination Entertainment
Жанр: Мультфильм, фантастика, комедия, криминал, приключения, семейный,
Продолжительность: 01:37:58
Перевод: Дубляж, Лицензия
Субтитры: Русские (полные + надписи), английские (полные + SDH - Colored)

Режиссер: Пьер Соффин / Pierre Coffin Крис Рено / Chris Renaud



В ролях: Стив Карелл, Кен Жонг, Кристен Уиг, Миранда Косгров, Мойзес Ариас, Бенджамин Брэтт, Стив Кугэн, Расселл Брэнд, Элси Фишер, Дэна Гайер

Описание: В то время, как бывший супер злодей, приспосабливается к семейной жизни и пытается честным трудом зарабатывать в сфере бизнеса: производство желе и разной вкуснятины, случается невероятное: тайные лаборатории Арктики с очень опасным средством, которое способно превратить обычного кролика в мутанта-уничтожителя, оказываются украденными... кто и зачем это сделал? Анти-Злодейская Лига решает, что она нуждается в помощи Грю и его новобранцев. Главный герой вместе со своей напарницей начинают бурное расследование со списками подозреваемых, которые могли совершить такое злобное воровство.

Качество: BDRip-AVC
Формат: MKV
Видео кодек: H.264
Аудио кодек: AC3
Видео: 1160x626(1,85:1), 23,976 fps, 2297 Кbps, 0.132 bit/pixel
Аудио#1: 48 kHz, AC3 Dolby Digital, 3/2 (L,C,R,l,r) + LFE ch, 448.00 kbps | RUS
Аудио#2: 48 kHz, AC3 Dolby Digital, 3/2 (L,C,R,l,r) + LFE ch, 448.00 kbps | ENG

Релиз группы:
Автор рипа: potroks





Общее
Уникальный идентификатор : 233505970033092692729447019189104399705 (0xAFAB9D2E512A8999A4C6252B3E9DD559)
Полное имя : Gadkij.Ja.2.2013.DUAL.BDRip.x264.-HELLYWOOD.mkv
Формат : Matroska
Версия формата : Version 4 / Version 2
Размер файла : 2,19 Гбайт
Продолжительность : 1 ч. 37 м.
Общий поток : 3194 Кбит/сек
Название фильма : HELLYWOOD - rip by potroks
Дата кодирования : UTC 2013-10-20 07:24:28
Программа кодирования : mkvmerge v5.9.0 ('On The Loose') built on Dec 15 2012 16:39:58
Библиотека кодирования : libebml v1.3.0 + libmatroska v1.4.0

Видео
Идентификатор : 1
Формат : AVC
Формат/Информация : Advanced Video Codec
Профиль формата : High@L4.1
Параметр CABAC формата : Да
Параметр ReFrames формата : 10 кадров
Идентификатор кодека : V_MPEG4/ISO/AVC
Продолжительность : 1 ч. 37 м.
Битрейт : 2297 Кбит/сек
Ширина : 1160 пикселей
Высота : 626 пикселей
Соотношение сторон : 1,85:1
Режим частоты кадров : Постоянный
Частота кадров : 23,976 кадра/сек
Цветовое пространство : YUV
Субдискретизация насыщенности : 4:2:0
Битовая глубина : 8 бит
Тип развёртки : Прогрессивная
Бит/(Пиксели*Кадры) : 0.132
Размер потока : 1,53 Гбайт (70%)
Библиотека кодирования : x264 core 130 r2273 b3065e6
Настройки программы : cabac=1 / ref=10 / deblock=1:-1:-1 / analyse=0x3:0x133 / me=umh / subme=11 / psy=1 / psy_rd=1.09:0.03 / mixed_ref=1 / me_range=32 / chroma_me=1 / trellis=2 / 8x8dct=1 / cqm=0 / deadzone=21,11 / fast_pskip=0 / chroma_qp_offset=-3 / threads=9 / lookahead_threads=2 / sliced_threads=0 / nr=0 / decimate=0 / interlaced=0 / bluray_compat=0 / constrained_intra=0 / bframes=11 / b_pyramid=2 / b_adapt=2 / b_bias=0 / direct=3 / weightb=1 / open_gop=0 / weightp=2 / keyint=250 / keyint_min=23 / scenecut=40 / intra_refresh=0 / rc_lookahead=60 / rc=2pass / mbtree=0 / bitrate=2297 / ratetol=1.0 / qcomp=0.70 / qpmin=0 / qpmax=69 / qpstep=4 / cplxblur=20.0 / qblur=0.5 / vbv_maxrate=50000 / vbv_bufsize=62500 / nal_hrd=none / ip_ratio=1.35 / pb_ratio=1.30 / aq=1:0.70
Язык : English
Default : Да
Forced : Нет

Аудио #1
Идентификатор : 2
Формат : AC-3
Формат/Информация : Audio Coding 3
Расширение режима : CM (complete main)
Параметр Endianness формата : Big
Идентификатор кодека : A_AC3
Продолжительность : 1 ч. 37 м.
Вид битрейта : Постоянный
Битрейт : 448 Кбит/сек
Каналы : 6 каналов
Расположение каналов : Front: L C R, Side: L R, LFE
Частота : 48,0 КГц
Битовая глубина : 16 бит
Метод сжатия : С потерями
Размер потока : 314 Мбайт (14%)
Заголовок : Dub | DD 5.1 @ 448 kbps - BD EUR
Язык : Russian
Default : Да
Forced : Да

Аудио #2
Идентификатор : 3
Формат : AC-3
Формат/Информация : Audio Coding 3
Расширение режима : CM (complete main)
Параметр Endianness формата : Big
Идентификатор кодека : A_AC3
Продолжительность : 1 ч. 37 м.
Вид битрейта : Постоянный
Битрейт : 448 Кбит/сек
Каналы : 6 каналов
Расположение каналов : Front: L C R, Side: L R, LFE
Частота : 48,0 КГц
Битовая глубина : 16 бит
Метод сжатия : С потерями
Размер потока : 314 Мбайт (14%)
Заголовок : Original | DD 5.1 @ 448 kbps - BD EUR
Язык : English
Default : Нет
Forced : Нет

Текст #1
Идентификатор : 4
Формат : UTF-8
Идентификатор кодека : S_TEXT/UTF8
Идентификатор кодека/Информация : UTF-8 Plain Text
Заголовок : Full
Язык : Russian
Default : Нет
Forced : Нет

Текст #2
Идентификатор : 5
Формат : UTF-8
Идентификатор кодека : S_TEXT/UTF8
Идентификатор кодека/Информация : UTF-8 Plain Text
Заголовок : Надписи
Язык : Russian
Default : Да
Forced : Нет

Текст #3
Идентификатор : 6
Формат : UTF-8
Идентификатор кодека : S_TEXT/UTF8
Идентификатор кодека/Информация : UTF-8 Plain Text
Заголовок : Full
Язык : English
Default : Нет
Forced : Нет

Текст #4
Идентификатор : 7
Формат : UTF-8
Идентификатор кодека : S_TEXT/UTF8
Идентификатор кодека/Информация : UTF-8 Plain Text
Заголовок : SDH - Colored
Язык : English
Default : Нет
Forced : Нет

Меню
00:00:00.000 : en:(01)00:00:00:000
00:03:22.994 : en:(02)00:03:22:994
00:08:04.734 : en:(03)00:08:04:734
00:15:50.866 : en:(04)00:15:50:866
00:18:28.232 : en:(05)00:18:28:232
00:24:36.892 : en:(06)00:24:36:892
00:30:50.723 : en:(07)00:30:50:723
00:34:40.703 : en:(08)00:34:40:703
00:40:48.279 : en:(09)00:40:48:279
00:46:26.200 : en:(10)00:46:26:200
00:51:23.121 : en:(11)00:51:23:121
00:56:27.425 : en:(12)00:56:27:425
01:00:00.471 : en:(13)01:00:00:471
01:03:27.053 : en:(14)01:03:27:053
01:08:44.078 : en:(15)01:08:44:078
01:14:01.979 : en:(16)01:14:01:979
01:18:08.058 : en:(17)01:18:08:058
01:22:33.907 : en:(18)01:22:33:907
01:27:09.098 : en:(19)01:27:09:098
01:30:33.719 : en:(20)01:30:33:719
01:37:58.497 : en:(21)01:37:58:497

pb.wtf



Скачать Гадкий я 2 через торрент http://i57.fastpic.ru/big/2013/1020/ac/7d912c44a4ed99d6179a2df66e0285ac.png Скачать фильм Гадкий я 2 через торрент бесплантно в хорошем качестве Описание: В то время, как бывший супер злодей, приспосабливается к семейной жизни и пытается честным трудом зарабатывать в сфере бизнеса: ... 9.8 10 76
Info! Золотая раздача, скачанное не засчитывается.
Торрент: Зарегистрирован [2014-01-28 12:11] · скачан: 1 708 раз
Статус: √ проверено
Размер: 2.19 GB
Как cкачать? Как скачать Гадкий я 2 через торрент | qTorrent

% Раздел Тема Автор DL S | L
Ultra HD (UHD: 2K, 4K, 8K) [ 33.7 GB ] Гадкий я 2 / Despicable Me 2 [2013 мультфильм UHD BDRemux 2160p] DVO+2xAVO+DUB [BD EUR] bober100 Скачать
1 | 0
Зарубежные Мультфильмы (BDRip 1080p, 720p, Blu-ray, BD-Remux) [ 3.78 GB ] Гадкий Я 2 / Despicable Me 2 [2013 мультфильм BDRip 1080p HEVC ] Мичман37 Скачать
2 | 0
Ultra HD (UHD: 2K, 4K, 8K) [ 26.43 GB ] Гадкий я 2 / Despicable Me 2 [2013 мультфильм UHD BDRemux 2160p] 2xMVO +DUB [BD EUR] bober100 Скачать
1 | 0
Зарубежные Мультфильмы (BDRip 1080p, 720p, Blu-ray, BD-Remux) [ 4.37 GB ] Гадкий я 2 / Despicable Me 2 [2013 мультфильм BDRip 720p]Dub[лицензия] Ворон Скачать
1 | 0
Фильмы с украинским озвучиванием [ 1.32 GB ] Гадкий я 2 / Нікчемний я 2 / Despicable Me 2 [2013 мультфильм BDRip] [Ukr DUB] killermax2013 Скачать
1 | 0
Иностранные мультфильмы [ 1.45 GB ] Гадкий я 2 / Despicable Me 2 [2013 мультфильм BDRip () [] 19Diman Скачать
1 | 0
Игры android [ 733 MB ] [Android 2.3 Notturno Скачать
1 | 0

28-11-2019 20:33  

Отключить всю рекламу на сайте

20-10-2013 08:38 Гадкий я 2 Скачать торрент  


  pb.wtf



09-11-2013 08:24 Гадкий я 2 Скачать торрент  

секунд 5 проигрывается, потом выключается... медиаплеер Иконбит Full HD, читает вроде вообще все... а гадкий мульт не хочет...(pb.wtf



    Дорогой пользователь! Огромная просьба, поблагодарите релизера, оцените раздачу и оставьте свои комментарий, если Вы скачали Гадкий я 2 через торрент бесплатно! Внесите свою лепту в развитие PiratBit!
    Комментировать посты могут только пользователи прошедшие не сложную регистрацию
    Показать сообщения:    

    Гадкий я 2 через торрент
    Скачать бесплатно Гадкий я 2
    Гадкий я 2 скачать торрент
    Гадкий я 2 смотреть онлайн
    Cкачать фильм Гадкий я 2 бесплатно
    Гадкий я 2 скачать торрент в хорошем качестве
    Гадкий я 2 смотреть онлайн бесплатно в хорошем качестве


    Вы не можете начинать темы
    Вы не можете отвечать на сообщения
    Вы не можете редактировать свои сообщения
    Вы не можете удалять свои сообщения
    Вы не можете голосовать в опросах
    Вы не можете прикреплять файлы к сообщениям
    Вы можете скачивать файлы