2 сезон

iTunes

MVO

1

2 сезон

iTunes

iTunes

1 сезон

RePack

30

Ultimate

ВАЖНО

ИГРА 18+

pack

RePack

MK11
pack

Легкие деньги

RePack

jed

RePack

fifa19

RePack

RDR2

RePack

NEED FOR SPEED™ PAYBACK

4 сезон

9 сезон

Бесстыжие 9 сезон

Все сериалы

все сериалы на PB.wtf

RePack

FAR CRY 5

Anonymous, добрый вечер, мы не успеваем собрать деньги на оплату серверов за декабрь и январь, помогите нам пожалуйста в это трудное время. В качестве благодарности мы отключим Вам всю рекламу на сайте (укажите свой ник в строку Ваше имя)!

×
  
Magnet ссылка

Гостья / The Host (Эндрю Никкол) [2013 г., Фантастика, Драма, Мелодрама, BDRip, Дубляж, лицензия] pb.wtf

Гостья через торрент pb.wtf

Размер: 2.18 GB | Добавлен: 6 лет 11 мес. назад | Торрент скачан:437 раз
Скачать  

28-07-2013 03:44 Гостья Скачать торрент  

Гостья / The Host
Год выпуска: 2013
Страна: США / Chockstone Pictures
Жанр: Фантастика, Драма, Мелодрама
Продолжительность: 02:05:39
Перевод: Профессиональный (дублированный) [Лицензия]
Субтитры: Русский, Английский (SDH) [Отдельным файлом]

Режиссер: Эндрю Никкол
Продюссер: Стефани Майер, Пола Мэй Шварц, Стив Шварц
В ролях: Сирша Ронан, Макс Айронс, Джейк Эйбел, Дайан Крюгер, Уильям Хёрт, Чандлер Кентербери, Фрэнсис Фишер, Скотт Лоуренс, Бойд Холбрук, Мустафа Харрис

Дата мировой премьеры: 22 марта 2013
Дата российской премьеры: 28 марта 2013, «West»




Описание:
Земля — в опасности! Наше место скоро займут Души — лишенные плотской оболочки пришельцы, вытесняющие из человеческих тел разум и замещающие его разумом собственным. Большая часть человечества уже погибла. Немногие выжившие скрываются в жалкой попытке отсрочить неизбежное… Теперь Душа пытается захватить тело юной Мелани. Однако происходит неожиданное: Мелани и ее Душа вынуждены сосуществовать в одном теле. Гостье надлежало выследить и выдать землян-повстанцев, с которыми связана Мелани, но она помогает своей носительнице.


Качество: BDRip
Формат: AVI
Видео кодек: XviD
Аудио кодек: AC3
Видео: 720x304, 23.976 fps, ~1574 кбит/сек
Аудио#1: Русский, 48 kHz, AC3 Dolby Digital, 3/2 (L,C,R,l,r) + LFE ch, 448.00 kbps
Аудио#2: Английский, 48 kHz, AC3 Dolby Digital, 3/2 (L,C,R,l,r) + LFE ch, 448.00 kbps
Скриншоты

скриншот   скриншот   скриншот   скриншот  
скриншот   скриншот   скриншот   скриншот  

Фильм снят по мотивам романа Стефани Майер «Гостья» (The Host, 2008).
Кроме Макса Айронса, претендентами на роль Джареда были Шайло Фернандез, Лиам Хемсворт, Кит Харингтон, Джей Кортни и Уилсон Бетел.
Дианна Агрон пробовалась на роль Мелани Страйдер.

Код:

[size=16]General
Complete name                  : The.Host.2013.BDRip.avi
Format                         : AVI
Format/Info                    : Audio Video Interleave
Format profile                 : OpenDML
File size                      : 2.18 GiB
Duration                       : 2h 5mn
Overall bit rate               : 2 488 Kbps
Movie name                     : Гостья / The Host (2013)
Writing application            : VirtualDubMod 1.5.10.2 (build 2542/release)
Copyright                      : NNM-CLUB.RU

Video
ID                             : 0
Format                         : MPEG-4 Visual
Format profile                 : Advanced Simple@L5
Format settings, BVOP          : Yes
Format settings, QPel          : No
Format settings, GMC           : No warppoints
Format settings, Matrix        : Custom
Codec ID                       : XVID
Codec ID/Hint                  : XviD
Duration                       : 2h 5mn
Bit rate                       : 1 574 Kbps
Width                          : 720 pixels
Height                         : 304 pixels
Display aspect ratio           : 2.35:1
Frame rate                     : 23.976 fps
Color space                    : YUV
Chroma subsampling             : 4:2:0
Bit depth                      : 8 bits
Scan type                      : Progressive
Compression mode               : Lossy
Bits/(Pixel*Frame)             : 0.300
Stream size                    : 1.38 GiB (63%)
Writing library                : XviD 65

Audio #1
ID                             : 1
Format                         : AC-3
Format/Info                    : Audio Coding 3
Mode extension                 : CM (complete main)
Format settings, Endianness    : Big
Codec ID                       : 2000
Duration                       : 2h 5mn
Bit rate mode                  : Constant
Bit rate                       : 448 Kbps
Channel(s)                     : 6 channels
Channel positions              : Front: L C R, Side: L R, LFE
Sampling rate                  : 48.0 KHz
Bit depth                      : 16 bits
Compression mode               : Lossy
Stream size                    : 403 MiB (18%)
Alignment                      : Split accross interleaves
Interleave, duration           : 42 ms (1.00 video frame)
Interleave, preload duration   : 500 ms
Title                          : Dub [Rus]

Audio #2
ID                             : 2
Format                         : AC-3
Format/Info                    : Audio Coding 3
Mode extension                 : CM (complete main)
Format settings, Endianness    : Big
Codec ID                       : 2000
Duration                       : 2h 5mn
Bit rate mode                  : Constant
Bit rate                       : 448 Kbps
Channel(s)                     : 6 channels
Channel positions              : Front: L C R, Side: L R, LFE
Sampling rate                  : 48.0 KHz
Bit depth                      : 16 bits
Compression mode               : Lossy
Stream size                    : 403 MiB (18%)
Alignment                      : Split accross interleaves
Interleave, duration           : 42 ms (1.00 video frame)
Interleave, preload duration   : 500 ms
Title                          : Original [Eng][/size]



pb.wtf



Скачать Гостья через торрент http://pic.kartinco.top/images/3/goi7ixxnzn.jpg Скачать фильм Гостья через торрент бесплантно в хорошем качестве Описание:Земля — в опасности! Наше место скоро займут Души — лишенные плотской оболочки пришельцы, вытесняющие из человеческих тел разум и ... 9.8 10 24
Info! Золотая раздача, скачанное не засчитывается.
Торрент: Зарегистрирован [2014-01-28 12:18] · скачан: 437 раз
Статус: √ проверено
Размер: 2.18 GB
Как cкачать? Как скачать Гостья через торрент | UTorrent

% Раздел Тема Автор DL S | L
Фильмы [HD 720p, 1080p] (Хороший звук DUB, MVO) [ 3.58 GB ] Гостья / The Host [2013 BDRip 720p] [GER Transfer] DUB - KORSAR kisa1980 Скачать
1 | 0
Фильмы 2013 [DVDrip, WEB-DLRip, HDrip] [ 1.46 GB ] Гостья / The Host [2013 HDRip лицензия] k1z Скачать
1 | 0
Фильмы (DVD фильмы) [ 7.76 GB ] Гостья / The Host [2013 DVD9] R5 voovaz Скачать
1 | 0
Фильмы 2013 [DVDrip, WEB-DLRip, HDrip] [ 2.18 GB ] Гостья / The Host [2013 BDRip-AVC лицензия] МАКС1 Скачать
1 | 0
Фильмы 2013 [DVDrip, WEB-DLRip, HDrip] [ 2.04 GB ] Гостья / The Host [ 2013 HDRip ] DUB [лицензия ] Ворон Скачать
1 | 0
Фильмы [HD 720p, 1080p] (Хороший звук DUB, MVO) [ 9.13 GB ] Гостья / The Host [ 2013 BDRip 1080p [ лицензия ]] Ворон Скачать
1 | 0

28-11-2019 20:33  

Отключить всю рекламу на сайте

    Дорогой пользователь! Огромная просьба, поблагодарите релизера, оцените раздачу и оставьте свои комментарий, если Вы скачали Гостья через торрент бесплатно! Внесите свою лепту в развитие PiratBit!
    Комментировать посты могут только пользователи прошедшие не сложную регистрацию
    Показать сообщения:    

    Гостья через торрент
    Скачать бесплатно Гостья
    Гостья скачать торрент
    Гостья смотреть онлайн
    Cкачать фильм Гостья бесплатно
    Гостья скачать торрент в хорошем качестве
    Гостья смотреть онлайн бесплатно в хорошем качестве


    Вы не можете начинать темы
    Вы не можете отвечать на сообщения
    Вы не можете редактировать свои сообщения
    Вы не можете удалять свои сообщения
    Вы не можете голосовать в опросах
    Вы не можете прикреплять файлы к сообщениям
    Вы можете скачивать файлы