1 сезон

3 сезон

iTunes

1

Line

MVO

iTunes

13

1 сезон

RePack

30

Deluxe

pack

Лицензия

ВАЖНО

ИГРА 18+

pack

RePack

MK11

RePack

jed

RePack

fifa19

RePack

RDR2

RePack

NEED FOR SPEED™ PAYBACK

4 сезон

9 сезон

Бесстыжие 9 сезон

Все сериалы

все сериалы на PB.wtf

RePack

FAR CRY 5

Anonymous, доброй ночи, мы катастрофически не успеваем собрать деньги на оплату серверов, помогите нам пожалуйста 5,10,15р., для нас важна любая помощь . В качестве благодарности мы отключим Вам всю рекламу на сайте (укажите свой ник в строку Ваше имя)!

×
  
Magnet ссылка

Ограбление Казино / Killing Them Softly (Эндрю Доминик / Andrew Dominik) [2012, триллер, драма, криминал, DVD5] R5 pb.wtf

Ограбление Казино через торрент pb.wtf

Размер: 4.05 GB | Добавлен: 7 лет 6 мес. назад | Торрент скачан:21 раз
Скачать  

15-01-2013 18:39 Ограбление Казино Скачать торрент  


Ограбление Казино / Killing Them Softly
«In America you're on your own»
Страна: США
Студия: 1984 Private Defense Contractors, Annapurna Pictures, Chockstone Pictures, Inferno Entertainment, Plan B Entertainment
Жанр: триллер, драма, криминал
Год выпуска: 2012
Мировая премьера: 22 мая 2012
Российская премьера: 18 октября 2012
Дата выхода DVD: 22 января 2013
Дата выхода Blu-Ray: 24 января 2013
Продолжительность: 01:33:15
Перевод: Профессиональный (дублированный) [Лицензия]
Cубтитры: нет
Оригинальная аудиодорожка: нет
Режиссер: Эндрю Доминик / Andrew Dominik
В ролях: Брэд Питт, Ричард Дженкинс, Джеймс Гандольфини, Рэй Лиотта, Скут МакНэйри, Бен Мендельсон, Винсент Куратола, Тревор Лонг, Макс Каселла, Сэм Шепард
Описание: Во время подпольной игры в покер совершено ограбление, и угроза повисла над всем воровским сообществом. Воротилы мафии рассчитывают, что Джеки Коган найдет виновных. Однако, вращаясь среди нерешительных заказчиков, жуликов-ростовщиков, усталых убийц и тех, кто спланировал «дело», даже специалисту трудно сохранить контроль над ситуацией…
Бонусы: нет

Качество: DVD5 R5
Формат: DVD-Video
Видео кодек: MPEG2
Аудио кодек: AC3
Видео: PAL 16:9 (720x576(0.547)) MPEG Video, 25,000 кадр/сек, 5673 Кбит/сек
Аудио: Russian (Dolby AC3, 6 ch) 448 Кбит/сек, 48,0 КГц



Title: Ograblenie.Kazino.2012.DVD5
Size: 4.05 Gb ( 4 245 696,00 KBytes ) - DVD-5
Enabled regions: 1, 2, 3, 4, 5, 6, 7, 8

VTS_01 :
Play Length: 01:33:15
Video: PAL 16:9 (720x576) VBR, Auto Letterboxed
Audio:
Russian (Dolby AC3, 6 ch)

VTS_02 :
Play Length: 00:00:16+00:00:08
Video: PAL 16:9 (720x576) VBR, Auto Letterboxed
Audio:
Russian (Dolby AC3, 2 ch)

* Menus Information *

VIDEO_TS Menu
Video:
NTSC 4:3 (720x480) VBR
Auto Pan&Scan, Auto Letterboxed
Russian Language Unit :
Title Menu

VTS_01 Menu
Video:
PAL 16:9 (720x576) VBR
Auto Letterboxed
Audio:
Not specified (Dolby AC3, 2 ch)
Russian Language Unit :
Root Menu

VTS_02 Menu
Video:
NTSC 4:3 (720x480) VBR
Auto Pan&Scan, Auto Letterboxed
Language Unit :

Language Unit :
Root Menu
Subpicture Menu
Audio Menu
Chapter (PTT) Menu
Общее
Полное имя : J:Новинки 2012Ograblenie.Kazino.2012.DVD5VIDEO_TSVTS_01_1.VOB
Формат : MPEG-PS
Размер файла : 1024 Мбайт
Продолжительность : 22 м.
Режим общего битрейта : Переменный
Общий поток : 6246 Кбит/сек

Видео
Идентификатор : 224 (0xE0)
Формат : MPEG Video
Версия формата : Version 2
Профиль формата : Main@Main
Параметр BVOP формата : Да
Параметр матрицы формата : Выборочная
Параметр GOP формата : M=3, N=15
Продолжительность : 22 м.
Вид битрейта : Переменный
Битрейт : 5673 Кбит/сек
Максимальный битрейт : 8200 Кбит/сек
Ширина : 720 пикселей
Высота : 576 пикселей
Соотношение сторон : 16:9
Частота кадров : 25,000 кадров/сек
Стандарт вещания : PAL
Цветовое пространство : YUV
Субдискретизация насыщенности : 4:2:0
Битовая глубина : 8 бит
Тип развёртки : Чересстрочная
Порядок развёртки : Верхнее поле первое
Метод сжатия : С потерями
Бит/(Пиксели*Кадры) : 0.547
Размер потока : 930 Мбайт (91%)

Аудио
Идентификатор : 189 (0xBD)-128 (0x80)
Формат : AC-3
Формат/Информация : Audio Coding 3
Расширение режима : CM (complete main)
Параметр Endianness формата : Big
Режим смешивания : DVD-Video
Продолжительность : 22 м.
Вид битрейта : Постоянный
Битрейт : 448 Кбит/сек
Каналы : 6 каналов
Расположение каналов : Front: L C R, Side: L R, LFE
Частота : 48,0 КГц
Битовая глубина : 16 бит
Метод сжатия : С потерями
Размер потока : 73,4 Мбайт (7%)










pb.wtf



Скачать Ограбление Казино через торрент http://i53.fastpic.ru/big/2013/0115/f5/ca7bbededed2d5ea5028ea2da1404cf5.jpg Скачать фильм Ограбление Казино через торрент бесплантно в хорошем качестве Описание: Во время подпольной игры в покер совершено ограбление, и угроза повисла над всем воровским сообществом. Воротилы мафии ... 10 10 9
Info! Золотая раздача, скачанное не засчитывается.
Торрент: Зарегистрирован [2014-01-28 12:23] · скачан: 21 раз
Статус: √ проверено
Размер: 4.05 GB
Как cкачать? Как скачать Ограбление Казино через торрент | UTorrent

28-11-2019 20:33  

Отключить всю рекламу на сайте

    Дорогой пользователь! Огромная просьба, поблагодарите релизера, оцените раздачу и оставьте свои комментарий, если Вы скачали Ограбление Казино через торрент бесплатно! Внесите свою лепту в развитие PiratBit!
    Комментировать посты могут только пользователи прошедшие не сложную регистрацию
    Показать сообщения:    

    Ограбление Казино через торрент
    Скачать бесплатно Ограбление Казино
    Ограбление Казино скачать торрент
    Ограбление Казино смотреть онлайн
    Cкачать фильм Ограбление Казино бесплатно
    Ограбление Казино скачать торрент в хорошем качестве
    Ограбление Казино смотреть онлайн бесплатно в хорошем качестве


    Вы не можете начинать темы
    Вы не можете отвечать на сообщения
    Вы не можете редактировать свои сообщения
    Вы не можете удалять свои сообщения
    Вы не можете голосовать в опросах
    Вы не можете прикреплять файлы к сообщениям
    Вы можете скачивать файлы