Ссылка на приватное зеркало нашего сайта всего за 1$. Внимание количество ограничено!!!

2 сезон

iTunes

1 сезон

1

2 сезон

2 сезон

iTunes

1 сезон

RePack

30

Новинка

ВАЖНО

ИГРА 18+

pack

RePack

MK11
pack

Забери бонус

RePack

jed

!!Акция!!

Alien_Rage

RePack

fifa19

RePack

Assassins Creed: Odyssey

RePack

NEED FOR SPEED™ PAYBACK

4 сезон

9 сезон

Бесстыжие 9 сезон

Все сериалы

все сериалы на PB.wtf

RePack

FAR CRY 5
  

Бешеные псы / Сезон: 4 Эпизод 1-2 из 2 / Mad Dogs (Адриан Шерголд, Джеймс Хоуз, Steven Metcalfe) [2013 г., триллер, драма, комедия, криминал, HDTV 1080i, Профессиональный двухголосый (Кубик в Кубе)] pb.wtf

Бешеные псы через торрент pb.wtf

Размер: 5.19 GB | Добавлен: 6 лет 10 мес. назад | Торрент скачан:14 раз
Скачать  

29-01-2014 05:35 Бешеные псы Скачать торрент  

Бешеные псы / Mad Dogs
Год выпуска: 2013
Страна: Великобритания
Жанр: триллер, драма, комедия, криминал
Продолжительность: 2 х 00:45:00
Перевод: Профессиональный двухголосый закадровый (Кубик в Кубе)
Озвучка: Кубик в Кубе

Режиссер: Адриан Шерголд Джеймс Хоуз Steven Metcalfe
Продюссер: Энди Харрис, Сюзанн Маки, Спенсер Кэмпбелл
Сценарий: Крис Коул
Премьера в мире: 10 февраля 2011

IMDB 7.60 (2578)


В ролях: Макс Бисли / Max Beesley, Джон Симм / John Simm, Марк Уоррен / Marc Warren, Филип Гленистер / Philip Glenister, Бен Чаплин / Ben Chaplin

Описание: Главные герои — четверо старых школьных приятелей, Вуди, Квинн, Бакстер и Рик. Теперь друзьям уже за сорок, кто-то женат, кто-то разведен, а кто-то так и остался холостым. Компания собирается на вилле на Майорке, чтобы отметить выход на пенсию пятого из друзей, Алво, которому удалось сколотить состояние на недвижимости. Но праздник превращается в кошмарный лабиринт из лжи, обмана и даже убийства.



Качество: HDTV 1080i
Формат: TS
Видео кодек: AVC
Аудио кодек: AC3
Видео: AVC, 1920x1080 (16:9), 25 fps, ~7801kbps, (Bits/Pixel): 0.151
Аудио#1: Rus: 48 kHz, AC3 Dolby Digital, 3/2 (L,C,R,l,r) + LFE ch, ~384.00 kbps avg
Аудио#2: Eng: 48 kHz, AC3 Dolby Digital, 3/2 (L,C,R,l,r) + LFE ch, ~384.00 kbps avg
General
ID : 1 (0x1)
Complete name : /etc/seedbox/home/kep/data/Mad Dogs Season 4 1080i CasStudio.TV/Mad.Dogs.s04e01.rus.eng.1080i.CasStudio.TV.ts
Format : MPEG-TS
File size : 2.81 GiB
Duration : 44mn 25s
Overall bit rate mode : Variable
Overall bit rate : 9 048 Kbps
Maximum Overall bit rate : 35.5 Mbps

Video
ID : 4113 (0x1011)
Menu ID : 1 (0x1)
Format : AVC
Format/Info : Advanced Video Codec
Format profile : Main@L4.0
Format settings, CABAC : Yes
Format settings, ReFrames : 4 frames
Format settings, GOP : M=4, N=12
Codec ID : 27
Duration : 44mn 26s
Bit rate mode : Variable
Bit rate : 7 825 Kbps
Maximum bit rate : 40.0 Mbps
Width : 1 920 pixels
Height : 1 080 pixels
Display aspect ratio : 16:9
Frame rate : 25.000 fps
Color space : YUV
Chroma subsampling : 4:2:0
Bit depth : 8 bits
Scan type : Interlaced
Scan order : Top Field First
Bits/(Pixel*Frame) : 0.151
Stream size : 2.43 GiB (86%)

Audio #1
ID : 4352 (0x1100)
Menu ID : 1 (0x1)
Format : AC-3
Format/Info : Audio Coding 3
Mode extension : CM (complete main)
Format settings, Endianness : Big
Codec ID : 129
Duration : 44mn 25s
Bit rate mode : Constant
Bit rate : 384 Kbps
Channel count : 6 channels
Channel positions : Front: L C R, Side: L R, LFE
Sampling rate : 48.0 KHz
Bit depth : 16 bits
Compression mode : Lossy
Stream size : 122 MiB (4%)
Language : Russian

Audio #2
ID : 4353 (0x1101)
Menu ID : 1 (0x1)
Format : AC-3
Format/Info : Audio Coding 3
Mode extension : CM (complete main)
Format settings, Endianness : Big
Codec ID : 129
Duration : 44mn 25s
Bit rate mode : Constant
Bit rate : 384 Kbps
Channel count : 6 channels
Channel positions : Front: L C R, Side: L R, LFE
Sampling rate : 48.0 KHz
Bit depth : 16 bits
Compression mode : Lossy
Stream size : 122 MiB (4%)
Language : English
pb.wtf



Скачать Бешеные псы через торрент http://i4.imageban.ru/out/2014/01/29/c23dd237a5d23cb3ed05338a75c71919.png Скачать фильм Бешеные псы через торрент бесплантно в хорошем качестве Описание: Главные герои — четверо старых школьных приятелей, Вуди, Квинн, Бакстер и Рик. Теперь друзьям уже за сорок, кто-то женат, кто-то ... 10 10 2
Info! Золотая раздача, скачанное не засчитывается.
Торрент: Зарегистрирован [2014-01-29 05:35] · скачан: 14 раз
Статус: √ проверено
Размер: 5.19 GB
Как cкачать? Как скачать Бешеные псы через торрент | qTorrent

28-11-2019 20:33  

Отключить всю рекламу на сайте

29-01-2014 05:51 Бешеные псы Скачать торрент  

yespb.wtf



    Дорогой пользователь! Огромная просьба, поблагодарите релизера, оцените раздачу и оставьте свои комментарий, если Вы скачали Бешеные псы через торрент бесплатно! Внесите свою лепту в развитие PiratBit!
    Комментировать посты могут только пользователи прошедшие не сложную регистрацию
    Показать сообщения:    

    Бешеные псы через торрент
    Скачать бесплатно Бешеные псы
    Бешеные псы скачать торрент
    Бешеные псы смотреть онлайн
    Cкачать фильм Бешеные псы бесплатно
    Бешеные псы скачать торрент в хорошем качестве
    Бешеные псы смотреть онлайн бесплатно в хорошем качестве


    Вы не можете начинать темы
    Вы не можете отвечать на сообщения
    Вы не можете редактировать свои сообщения
    Вы не можете удалять свои сообщения
    Вы не можете голосовать в опросах
    Вы не можете прикреплять файлы к сообщениям
    Вы можете скачивать файлы