2 сезон

iTunes

1 сезон

1

iTunes

iTunes

iTunes

1 сезон

RePack

30

ИГРА 18+

pack

ВАЖНО

!!Акция!!

Alien_RageХит недели

RePack

MK11
pack

Забери бонус

RePack

jed

!!Акция!!

Alien_Rage

RePack

fifa19

RePack

Assassins Creed: Odyssey

RePack

NEED FOR SPEED™ PAYBACK

4 сезон

9 сезон

Бесстыжие 9 сезон

Все сериалы

все сериалы на PB.wtf

RePack

FAR CRY 5
  

Малена / Malena (Джузеппе Торнаторе) [2000 г., драма, мелодрама, военный, Полная версия / Uncut version, BDRip 1080p, Дубляж + Авторский одноголосый + Оригинал] pb.wtf

Малена через торрент pb.wtf

Размер: 9.95 GB | Добавлен: 3 года 3 мес. назад | Торрент скачан:307 раз
Скачать  

29-01-2014 09:44 Малена Скачать торрент  

Малена / Malena[Полная версия / Uncut version]Год выпуска: 2000
Страна: Италия, США
Жанр: драма, мелодрама, военный
Продолжительность: 01:48:04
Перевод: Дубляж + Авторский одноголосый + Оригинал
Субтитры: Русские, Английские

Режиссер: Джузеппе Торнаторе
Продюссер: Карло Бернаскони, Харви Вайнштейн, Марио Котоне
Сценарий: Джузеппе Торнаторе, Лучиано Винчензони

Премьера в мире: 27 октября 2000






В ролях: Моника Беллуччи, Джузеппе Сульфаро, Лючано Федерико, Матильде Пьяна, Пьетро Нотарианни, Гаэтано Ароника, Джилберто Идонеа, Анджело Пеллегрино, Габриэлла Ди Лузио, Пиппо Проввиденти




Описание: Малена — красавица-вдова, наваждение мужчин и предмет зависти женщин. Жены распускают о ней грязные сплетни. Мужья преследуют ее по пятам и грезят о ней. «Мне было 13, когда я увидел ее впервые. Прошло время, я любил многих женщин, и когда мы были близки, они спрашивали: буду ли я помнить их? И я говорил: да, я буду помнить вас. Но единственная, кого я никогда не забуду — та, которая никогда не спрашивала. Малена».




Качество: BDRip 1080p
Формат: MKV
Видео кодек: x264
Аудио кодек: AC3
Видео: 1920х816, 11073 Кбит/сек, 23.976 кадр/сек, AVC, x264, High@L4.1, 0.295 Бит/[Пиксели*Кадры], 2pass
Аудио#1: AC3 5.1 48 kHz 640 kbps - Дублированный
Аудио#2: AC3 5.1 48 kHz 384 kbps - Авторский - Михаил Иванов
Аудио#3: AC3 5.1 48 kHz 448 kbps - Авторский - Антон Карповский
Аудио#4: AC3 5.1 48 kHz 640 kbps - Original / Italian
скриншот   скриншот   скриншот   скриншот   скриншот   скриншот   скриншот   скриншот   скриншот   скриншот  

Format : Matroska
Format version : Version 2
File size : 9.95 GiB
Duration : 1h 48mn
Overall bit rate : 13.2 Mbps
Movie name : Malena.(2000).BDRip.1080p.[denis100].Uncut.CHD
Encoded date : UTC 2014-01-22 15:19:34
Writing application : mkvmerge v5.8.0 ('No Sleep / Pillow') built on Sep 2 2012 15:37:04
Writing library : libebml v1.2.3 + libmatroska v1.3.0

Video
ID : 1
Format : AVC
Format/Info : Advanced Video Codec
Format profile : High@L4.1
Format settings, CABAC : Yes
Format settings, ReFrames : 5 frames
Codec ID : V_MPEG4/ISO/AVC
Duration : 1h 48mn
Bit rate : 11.1 Mbps
Width : 1 920 pixels
Height : 816 pixels
Display aspect ratio : 2.35:1
Frame rate mode : Constant
Frame rate : 23.976 fps
Color space : YUV
Chroma subsampling : 4:2:0
Bit depth : 8 bits
Scan type : Progressive
Bits/(Pixel*Frame) : 0.295
Stream size : 8.16 GiB (82%)
Title : Malena.(2000).BDRip.1080p.[denis100].Uncut.CHD
Writing library : x264 core 125 r2208 d9d2288
Encoding settings : cabac=1 / ref=5 / deblock=1:-3:-3 / analyse=0x3:0x113 / me=umh / subme=10 / psy=1 / psy_rd=1.05:0.10 / mixed_ref=1 / me_range=32 / chroma_me=1 / trellis=2 / 8x8dct=1 / cqm=0 / deadzone=21,11 / fast_pskip=0 / chroma_qp_offset=-2 / threads=8 / lookahead_threads=1 / sliced_threads=0 / nr=0 / decimate=1 / interlaced=0 / bluray_compat=0 / constrained_intra=0 / bframes=6 / b_pyramid=2 / b_adapt=2 / b_bias=0 / direct=3 / weightb=1 / open_gop=0 / weightp=2 / keyint=250 / keyint_min=23 / scenecut=40 / intra_refresh=0 / rc=2pass / mbtree=0 / bitrate=11073 / ratetol=1.0 / qcomp=0.70 / qpmin=0 / qpmax=69 / qpstep=4 / cplxblur=20.0 / qblur=0.5 / ip_ratio=1.40 / pb_ratio=1.30 / aq=2:1.00
Language : Italian
Default : Yes
Forced : No

Audio #1
ID : 2
Format : AC-3
Format/Info : Audio Coding 3
Mode extension : CM (complete main)
Format settings, Endianness : Big
Codec ID : A_AC3
Duration : 1h 48mn
Bit rate mode : Constant
Bit rate : 640 Kbps
Channel count : 6 channels
Channel positions : Front: L C R, Side: L R, LFE
Sampling rate : 48.0 KHz
Bit depth : 16 bits
Compression mode : Lossy
Stream size : 495 MiB (5%)
Title : Дублированный
Language : Russian
Default : Yes
Forced : No

Audio #2
ID : 3
Format : AC-3
Format/Info : Audio Coding 3
Mode extension : CM (complete main)
Format settings, Endianness : Big
Codec ID : A_AC3
Duration : 1h 48mn
Bit rate mode : Constant
Bit rate : 384 Kbps
Channel count : 6 channels
Channel positions : Front: L C R, Side: L R, LFE
Sampling rate : 48.0 KHz
Bit depth : 16 bits
Compression mode : Lossy
Stream size : 297 MiB (3%)
Title : Авторский - Михаил Иванов
Language : Russian
Default : No
Forced : No

Audio #3
ID : 4
Format : AC-3
Format/Info : Audio Coding 3
Mode extension : CM (complete main)
Format settings, Endianness : Big
Codec ID : A_AC3
Duration : 1h 48mn
Bit rate mode : Constant
Bit rate : 448 Kbps
Channel count : 6 channels
Channel positions : Front: L C R, Side: L R, LFE
Sampling rate : 48.0 KHz
Bit depth : 16 bits
Compression mode : Lossy
Stream size : 346 MiB (3%)
Title : Авторский - Антон Карповский
Language : Russian
Default : No
Forced : No

Audio #4
ID : 5
Format : AC-3
Format/Info : Audio Coding 3
Mode extension : CM (complete main)
Format settings, Endianness : Big
Codec ID : A_AC3
Duration : 1h 48mn
Bit rate mode : Constant
Bit rate : 640 Kbps
Channel count : 6 channels
Channel positions : Front: L C R, Side: L R, LFE
Sampling rate : 48.0 KHz
Bit depth : 16 bits
Compression mode : Lossy
Stream size : 495 MiB (5%)
Title : Original / Italian
Language : Italian
Default : No
Forced : No

Text #1
ID : 6
Format : UTF-8
Codec ID : S_TEXT/UTF8
Codec ID/Info : UTF-8 Plain Text
Title : Forced
Language : Russian
Default : Yes
Forced : No

Text #2
ID : 7
Format : UTF-8
Codec ID : S_TEXT/UTF8
Codec ID/Info : UTF-8 Plain Text
Title : Full
Language : Russian
Default : No
Forced : No

Text #3
ID : 8
Format : UTF-8
Codec ID : S_TEXT/UTF8
Codec ID/Info : UTF-8 Plain Text
Title : Full 1
Language : English
Default : No
Forced : No

Text #4
ID : 9
Format : UTF-8
Codec ID : S_TEXT/UTF8
Codec ID/Info : UTF-8 Plain Text
Title : Full 2
Language : English
Default : No
Forced : No

Menu
00:00:00.000 : it:Chapter 01
00:09:08.965 : it:Chapter 02
00:18:52.506 : it:Chapter 03
00:27:32.025 : it:Chapter 04
00:36:52.418 : it:Chapter 05
00:45:20.300 : it:Chapter 06
00:53:59.861 : it:Chapter 07
01:04:18.646 : it:Chapter 08
01:11:30.619 : it:Chapter 09
01:22:36.117 : it:Chapter 10
01:30:34.804 : it:Chapter 11
01:40:59.428 : it:Chapter 12
01:48:00.849 : it:Chapter 13


Малена скачать торрент


pb.wtf



Скачать Малена через торрент http://pic.kartinco.top/images/6/3jjg5.jpg Скачать фильм Малена через торрент бесплантно в хорошем качестве Описание: Малена — красавица-вдова, наваждение мужчин и предмет зависти женщин. Жены распускают о ней грязные сплетни. Мужья преследуют ее ... 9.8 10 16
Info! Золотая раздача, скачанное не засчитывается.
Торрент: Зарегистрирован [2017-07-15 11:10] · скачан: 307 раз
Статус: √ проверено
Размер: 9.95 GB
Как cкачать? Как скачать Малена через торрент | qTorrent

% Раздел Тема Автор DL S | L
Гонзо [ 1.36 GB ] Малена и рабыни Рокко / Malena e le schiave di Rocco [2017 Gonzo Big Tits Big Asses SATRip] Скорпион1976 Скачать
2 | 0
Фильмы до 2000 г. [ 1.45 GB ] Малена / Malèna / Malena [2000 военный HDRip] [Полная версия] DUB [] bober100 Скачать
1 | 0
Фильмы с авторской озвучкой [ 1.45 GB ] Малена / Malena [2000 военный BDRip-AVC] [Полная версия] [AVO] killermax2013 Скачать
1 | 0
Фильмы (Blu-ray, BD-Remux, HDDVD) [ 19.95 GB ] Малена / Malena [2000 Италия военный BD Remux] DUB + 2xAVO [М. Иванов А. Карповский] + Subs + Original Messa-fan Скачать
1 | 0


Последний раз редактировалось: -Lexx- (2017-07-15 11:14), всего редактировалось 4 раз(а)

28-11-2019 20:33  

Отключить всю рекламу на сайте

19-10-2014 20:00 Малена Скачать торрент  

Плиз встаньте на раздачу хоть кто?!? Слезно попрошайкаю... pb.wtf



15-07-2017 18:12 Малена Скачать торрент  

смотрел его раз пять .шедевральный фильмpb.wtf



    Дорогой пользователь! Огромная просьба, поблагодарите релизера, оцените раздачу и оставьте свои комментарий, если Вы скачали Малена через торрент бесплатно! Внесите свою лепту в развитие PiratBit!
    Комментировать посты могут только пользователи прошедшие не сложную регистрацию
    Показать сообщения:    

    Малена через торрент
    Скачать бесплатно Малена
    Малена скачать торрент
    Малена смотреть онлайн
    Cкачать фильм Малена бесплатно
    Малена скачать торрент в хорошем качестве
    Малена смотреть онлайн бесплатно в хорошем качестве


    Вы не можете начинать темы
    Вы не можете отвечать на сообщения
    Вы не можете редактировать свои сообщения
    Вы не можете удалять свои сообщения
    Вы не можете голосовать в опросах
    Вы не можете прикреплять файлы к сообщениям
    Вы можете скачивать файлы