Ссылка на приватное зеркало нашего сайта всего за 1$. Внимание количество ограничено!!!

2 сезон

iTunes

1 сезон

1

2 сезон

2 сезон

iTunes

1 сезон

RePack

30

Новинка

ВАЖНО

ИГРА 18+

pack

RePack

MK11
pack

Забери бонус

RePack

jed

!!Акция!!

Alien_Rage

RePack

fifa19

RePack

Assassins Creed: Odyssey

RePack

NEED FOR SPEED™ PAYBACK

4 сезон

9 сезон

Бесстыжие 9 сезон

Все сериалы

все сериалы на PB.wtf

RePack

FAR CRY 5
  

Два ствола / 2 Guns (Бальтасар Кормакур / Baltasar Kormakur) [2013, США, Боевик, триллер, драма, комедия, криминал, BDRemux 1080p] Dub + 2х AVO (Сербин, Володарский) + Sub Rus, Eng + Original Eng pb.wtf

Два ствола через торрент pb.wtf

Размер: 33.74 GB | Добавлен: 6 лет 9 мес. назад | Торрент скачан:115 раз
Скачать  

19-01-2014 11:29 Два ствола Скачать торрент  



Два ствола / 2 Guns

«Карты есть, деньги будут»

  • Год выпуска:2013
  • Страна:США
  • Жанр:боевик, триллер, драма, комедия, криминал

  • Продолжительность: 01:49:15
  • Перевод:Профессиональный (полное дублирование)+Авторский (одноголосый закадровый) Юрий Сербин+ Авторский (одноголосый закадровый) Леонид Володарский

  • Субтитры: Английские,Русские
    • Режиссер:Бальтасар Кормакур / Baltasar Kormákur

  • В ролях:Дензел Вашингтон (Robert «Bobby» Trench), Марк Уолберг (Michael «Stig» Stigman), Пола Пэттон (Deb), Билл Пэкстон (Earl), Эдвард Джеймс Олмос (Papi Greco), Джеймс Марсден (Quince), Роберт Джон Бёрк (Jessup), Фред Уорд (Admiral Tuwey), Патрик Фишлер (Dr. Ken), Лаки Джонсон (Tim Corrales), Грег Спролс (Chief Lucas), Эдгар Арреола (Rudy (Papi's Men))
    • Описание:
      Это история двух грабителей, которые на самом деле не те, кем кажутся. Один из них - агент из управления по борьбе с наркотиками, а другой - тайный агент разведки ВМС. Сами того не желая, они занимаются расследованием дел друг друга, а также воруют деньги у мафии. Через некоторое время героям придется украсть 50 миллионов долларов у ЦРУ.

    Бюджет:$61 000 000 / Мировая премьера:30 июля 2013
    • Качество: BDRemux
    • Формат:MKV
    • Видео кодек: AVC
    • Аудио кодек:DTS
    • Видео: MPEG-4 AVC Video 32041 kbps 1080p / 23.976 fps / 16:9 / High Profile 4.1
      Аудио: Dolby Digital Audio Russian 5.1 / 48 kHz / 640 kbps | Дубляж
      Аудио 2: DTS-HD 5.1 / 48 kHz / 3294 kbps / 24-bit (DTS Core: 5.1 / 48 kHz / 1509 kbps / 24-bit) | Сербин
      Аудио 3: DTS-HDn 5.1 / 48 kHz / 3334 kbps / 24-bit (DTS Core: 5.1 / 48 kHz / 1509 kbps / 24-bit) | Володарский
      Аудио 4: Dolby Digital Audio Ukrainian 5.1 / 48 kHz / 640 kbps | Дубляж
      Аудио 5: DTS-HD 5.1 / 48 kHz / 3560 kbps / 24-bit (DTS Core: 5.1 / 48 kHz / 1509 kbps / 24-bit)
      Аудио 6: Dolby Digital Audio English 2.0 / 48 kHz / 192 kbps | Commentary
      Аудио 7: Dolby Digital Audio English 2.0 / 48 kHz / 192 kbps | Description

    • Фильм снят по мотивам одноименного комикса.
    • Дэвид О. Расселл, Даг Лайман, Антуан Фукуа, Пьер Морель и Мартин Кэмпбелл рассматривались на место режиссера проекта.
    • Эллен Помпео и Мариса Томей рассматривались на роль Деб.
    • На начальных стадиях создания фильма Винса Вона брали на роль Бобби, а Оуэна Уилсона - на роль Стига.
    • В трейлере используется песня «Die by the Drop» группы The Dead Weather. Эта же песня ранее использовалась в трейлере к фильму Бальтасара Кормакура «Контрабанда» (2011), главную роль в котором исполнил также Марк Уолберг.
    • еще 2 факта
    • Эрл говорит Папе, что он мог бы организовать нападение вертолетов Apache A-6. A-6 - это реактивный истребитель, а вертолет Apache обозначается как AH-64.
    • Магазин рыболовных принадлежностей, где работает друг Стига и где он и Бобби встречаются после побега, очевидно, находится не в Техасе. По техасским законам неоновый знак пива на витрине запрещен.
    • Когда агент ЦРУ убивает босса Бобби, его мертвое тело лежит рядом со столом. Несколькими кадрами позже тело лежит в дверях, ведущих в столовую.
    • Когда Эрл играет в русскую рулетку с Бобби, патроны меняют свое положение на столе после смены кадра.
    • Когда Бобби и Стиг въезжают в Техас из Мексики, они пересекают реку Рио-Гранде, которая течет справа налево относительно их движения. Но Рио-Гранде течет на восток вдоль этой границы, а поэтому должна течь слева направо, когда они идут на север.
    • Когда Бобби удерживает Куинса в его офисе, вооруженный помощник Куинса заходит внутрь. Американские военнослужащие, как правило, не носят подвешенное на ремне оружие, пребывая на базе.
    General
    Complete name : X: -= Фильмы =-Два ствола (2013. 2 Guns).mkv
    Format : Matroska
    File size : 33.7 GiB
    Duration : 1h 49mn
    Overall bit rate : 44.2 Mbps
    Movie name : Release for RuTracker
    Encoded date : UTC 2013-12-20 23:23:45
    Writing application : mkvmerge v4.9.1 ('Ich will') сборка от Jul 11 2011 23:53:15
    Writing library : libebml v1.2.1 + libmatroska v1.1.1
    Video
    ID : 1
    Format : AVC
    Format/Info : Advanced Video Codec
    Format profile : High@L4.1
    Format settings, CABAC : Yes
    Format settings, ReFrames : 4 frames
    Muxing mode : Container profile=Unknown@4.1
    Codec ID : V_MPEG4/ISO/AVC
    Duration : 1h 49mn
    Bit rate mode : Variable
    Maximum bit rate : 35.0 Mbps
    Width : 1 920 pixels
    Height : 1 080 pixels
    Display aspect ratio : 16:9
    Frame rate : 23.976 fps
    Color space : YUV
    Chroma subsampling : 4:2:0
    Bit depth : 8 bits
    Scan type : Progressive
    Title : 2 Guns 2013 1080p Blu-ray AVC DTS-HD MA 5.1
    Language : English
    Audio #1
    ID : 2
    Format : AC-3
    Format/Info : Audio Coding 3
    Mode extension : CM (complete main)
    Codec ID : A_AC3
    Duration : 1h 49mn
    Bit rate mode : Constant
    Bit rate : 640 Kbps
    Channel(s) : 6 channels
    Channel positions : Front: L C R, Side: L R, LFE
    Sampling rate : 48.0 KHz
    Bit depth : 16 bits
    Stream size : 500 MiB (1%)
    Title : Dub [BD CEE]
    Language : Russian
    Audio #2
    ID : 3
    Format : DTS
    Format/Info : Digital Theater Systems
    Format profile : MA
    Codec ID : A_DTS
    Duration : 1h 49mn
    Bit rate mode : Variable
    Channel(s) : 6 channels
    Channel positions : Front: L C R, Side: L R, LFE
    Sampling rate : 48.0 KHz
    Bit depth : 24 bits
    Title : Юрий Сербин
    Language : Russian
    Audio #3
    ID : 4
    Format : DTS
    Format/Info : Digital Theater Systems
    Format profile : MA
    Codec ID : A_DTS
    Duration : 1h 49mn
    Bit rate mode : Variable
    Channel(s) : 6 channels
    Channel positions : Front: L C R, Side: L R, LFE
    Sampling rate : 48.0 KHz
    Bit depth : 24 bits
    Title : Леонид Володарский
    Language : Russian
    Audio #4
    ID : 5
    Format : AC-3
    Format/Info : Audio Coding 3
    Mode extension : CM (complete main)
    Codec ID : A_AC3
    Duration : 1h 49mn
    Bit rate mode : Constant
    Bit rate : 640 Kbps
    Channel(s) : 6 channels
    Channel positions : Front: L C R, Side: L R, LFE
    Sampling rate : 48.0 KHz
    Bit depth : 16 bits
    Stream size : 500 MiB (1%)
    Title : Dub [BD CEE]
    Language : Ukrainian
    Audio #5
    ID : 6
    Format : DTS
    Format/Info : Digital Theater Systems
    Format profile : MA
    Codec ID : A_DTS
    Duration : 1h 49mn
    Bit rate mode : Variable
    Channel(s) : 6 channels
    Channel positions : Front: L C R, Side: L R, LFE
    Sampling rate : 48.0 KHz
    Bit depth : 24 bits
    Language : English
    Audio #6
    ID : 7
    Format : AC-3
    Format/Info : Audio Coding 3
    Format profile : Dolby Digital
    Mode extension : CM (complete main)
    Codec ID : A_AC3
    Duration : 1h 49mn
    Bit rate mode : Constant
    Bit rate : 192 Kbps
    Channel(s) : 2 channels
    Channel positions : Front: L R
    Sampling rate : 48.0 KHz
    Bit depth : 16 bits
    Stream size : 150 MiB (0%)
    Title : Commentary
    Language : English
    Audio #7
    ID : 8
    Format : AC-3
    Format/Info : Audio Coding 3
    Format profile : Dolby Digital
    Mode extension : CM (complete main)
    Codec ID : A_AC3
    Duration : 1h 49mn
    Bit rate mode : Constant
    Bit rate : 192 Kbps
    Channel(s) : 2 channels
    Channel positions : Front: L R
    Sampling rate : 48.0 KHz
    Bit depth : 16 bits
    Stream size : 150 MiB (0%)
    Title : Description
    Language : English
    Text #1
    ID : 9
    Format : UTF-8
    Codec ID : S_TEXT/UTF8
    Codec ID/Info : UTF-8 Plain Text
    Title : Forced
    Language : Russian
    Text #2
    ID : 10
    Format : UTF-8
    Codec ID : S_TEXT/UTF8
    Codec ID/Info : UTF-8 Plain Text
    Title : BD CEE
    Language : Russian
    Text #3
    ID : 11
    Format : UTF-8
    Codec ID : S_TEXT/UTF8
    Codec ID/Info : UTF-8 Plain Text
    Title : voronine
    Language : Russian
    Text #4
    ID : 12
    Format : UTF-8
    Codec ID : S_TEXT/UTF8
    Codec ID/Info : UTF-8 Plain Text
    Language : English
    Text #5
    ID : 13
    Format : UTF-8
    Codec ID : S_TEXT/UTF8
    Codec ID/Info : UTF-8 Plain Text
    Title : SDH
    Language : English
    Menu
    00:00:00.000 : en:Chapter 01
    00:05:36.044 : en:Chapter 02
    00:10:44.185 : en:Chapter 03
    00:15:15.205 : en:Chapter 04
    00:20:42.282 : en:Chapter 05
    00:24:47.736 : en:Chapter 06
    00:29:20.842 : en:Chapter 07
    00:36:24.098 : en:Chapter 08
    00:40:56.370 : en:Chapter 09
    00:45:39.278 : en:Chapter 10
    00:52:17.050 : en:Chapter 11
    00:58:13.781 : en:Chapter 12
    01:05:49.987 : en:Chapter 13
    01:10:28.682 : en:Chapter 14
    01:14:35.387 : en:Chapter 15
    01:20:14.559 : en:Chapter 16
    01:24:46.915 : en:Chapter 17
    01:31:11.924 : en:Chapter 18
    01:38:23.647 : en:Chapter 19
    01:41:02.639 : en:Chapter 20





    Трейлеры к фильмам [2013-2014]
    © Оформление by Vetal
    pb.wtf



  • Скачать Два ствола через торрент http://i17.fastpic.ru/big/2011/0313/61/40ee5a6971f3b74b62c2f0e9ea2ffa61.gif Скачать фильм Два ствола через торрент бесплантно в хорошем качестве Описание:Это история двух грабителей, которые на самом деле не те, кем кажутся. Один из них - агент из управления по борьбе с наркотиками, ... 9.9 10 8
    Info! Золотая раздача, скачанное не засчитывается.
    Торрент: Зарегистрирован [2014-01-29 16:32] · скачан: 115 раз
    Статус: √ проверено
    Размер: 33.74 GB
    Как cкачать? Как скачать Два ствола через торрент | qTorrent

    28-11-2019 20:33  

    Отключить всю рекламу на сайте

      Дорогой пользователь! Огромная просьба, поблагодарите релизера, оцените раздачу и оставьте свои комментарий, если Вы скачали Два ствола через торрент бесплатно! Внесите свою лепту в развитие PiratBit!
      Комментировать посты могут только пользователи прошедшие не сложную регистрацию
      Показать сообщения:    

      Два ствола через торрент
      Скачать бесплатно Два ствола
      Два ствола скачать торрент
      Два ствола смотреть онлайн
      Cкачать фильм Два ствола бесплатно
      Два ствола скачать торрент в хорошем качестве
      Два ствола смотреть онлайн бесплатно в хорошем качестве


      Вы не можете начинать темы
      Вы не можете отвечать на сообщения
      Вы не можете редактировать свои сообщения
      Вы не можете удалять свои сообщения
      Вы не можете голосовать в опросах
      Вы не можете прикреплять файлы к сообщениям
      Вы можете скачивать файлы