Ссылка на приватное зеркало нашего сайта всего за 1$. Внимание количество ограничено!!!

2 сезон

iTunes

1 сезон

1

iTunes

iTunes

iTunes

1 сезон

RePack

30

ИГРА 18+

pack

ВАЖНО

!!Акция!!

Alien_RageХит недели

RePack

MK11
pack

Забери бонус

RePack

jed

!!Акция!!

Alien_Rage

RePack

fifa19

RePack

Assassins Creed: Odyssey

RePack

NEED FOR SPEED™ PAYBACK

4 сезон

9 сезон

Бесстыжие 9 сезон

Все сериалы

все сериалы на PB.wtf

RePack

FAR CRY 5
  

Росомаха: Бессмертный / The Wolverine (Джеймс Мэнголд / James Mangold) [ 2013 , Австралия, США , фантастика, фэнтези, боевик , BDRip 720p ] DUB [Цифровая Лицензия / iTunes Russia] [Theatrical] pb.wtf

Росомаха: Бессмертный через торрент pb.wtf

Размер: 4.79 GB | Добавлен: 6 лет 8 мес. назад | Торрент скачан:473 раза
Скачать  

17-11-2013 21:23 Росомаха: Бессмертный Скачать торрент  

Росомаха: Бессмертный / The WolverineГод выпуска: 2013
Страна: Австралия, США
Жанр: фантастика, фэнтези, боевик, приключения

Продолжительность: 02:06:08
Перевод: Профессиональный (полное дублирование)[Цифровая Лицензия / iTunes Russia] [Theatrical]
Субтитры: Нет
Режиссер: Джеймс Мэнголд / James Mangold
В ролях: Хью Джекман (Logan), Тао Окамото (Mariko), Рила Фукусима (Yukio), Светлана Ходченкова (Viper), Уилл Юн Ли (Harada), Харукико Яманоути (Yashida), Хироюки Санада (Shingen), Брайан Ти (Noburo), Кен Ямамура (Young Yashida), Фамке Янссен (Jean Grey), Нобутака Аояги (Security), Сейдзи Фунамото (Servant)

Рейтинг
kinopoisk.ru: 6.656 (31 565)
imdb.com: 6.90 (109 755)
MPAA: PG-13 - Детям до 13 лет просмотр не желателен
Описание:
Новая глава приключений Росомахи развернётся в Японии, где Логану предстоит выяснить, что острее - когти Росомахи или меч Серебряного Самурая.
Автор: by Vetal


Качество: BDRip 720p
Формат: MKV
Видео кодек: AVC
Аудио кодек: AC3
Видео: AVC, 1280x534 (2.40:1), 4940 kbps, 23,976 fps, 0,301 bpp
Аудио: AC3 / 5.1 / 48 kHz / 384 kbps / 16 bit
Дополнительно: Сохранены оригинальные чаптеры как на Blu-ray

General
Unique ID : 188222427185913387133018038410429305449 (0x8D9A5224AF357C0F9854D2EFD1C79269)
Complete name : D:Rosomaha.bessmertbij.THEATRICAL.2013.BDRip.720p.mkv
Format : Matroska
Format version : Version 4 / Version 2
File size : 4.79 GiB
Duration : 2h 6mn
Overall bit rate : 5 432 Kbps
Encoded date : UTC 2013-11-17 21:09:31
Writing application : mkvmerge v6.4.1 ('Omega Point') built on Sep 16 2013 22:05:10
Writing library : libebml v1.3.0 + libmatroska v1.4.1

Video
ID : 1
Format : AVC
Format/Info : Advanced Video Codec
Format profile : High@L4.1
Format settings, CABAC : Yes
Format settings, ReFrames : 4 frames
Codec ID : V_MPEG4/ISO/AVC
Duration : 2h 6mn
Bit rate : 4 940 Kbps
Width : 1 280 pixels
Height : 534 pixels
Display aspect ratio : 2.40:1
Frame rate : 23.976 fps
Color space : YUV
Chroma subsampling : 4:2:0
Bit depth : 8 bits
Scan type : Progressive
Bits/(Pixel*Frame) : 0.301
Stream size : 4.35 GiB (91%)
Writing library : x264 core 138 r2359+704+48 3f879a0 tMod [8-bit@all X86_64]
Encoding settings : cabac=1 / ref=2 / deblock=1:-1:-1 / analyse=0x3:0x133 / me=dia / subme=3 / psy=1 / fade_compensate=0.00 / psy_rd=1.00:0.00 / mixed_ref=1 / me_range=16 / chroma_me=1 / trellis=2 / 8x8dct=1 / cqm=0 / deadzone=21,11 / fast_pskip=0 / chroma_qp_offset=0 / threads=12 / lookahead_threads=3 / sliced_threads=0 / nr=0 / decimate=1 / interlaced=0 / bluray_compat=0 / constrained_intra=0 / fgo=0 / bframes=2 / b_pyramid=2 / b_adapt=2 / b_bias=0 / direct=1 / weightb=1 / open_gop=0 / weightp=2 / keyint=240 / keyint_min=23 / scenecut=40 / intra_refresh=0 / rc_lookahead=60 / rc=crf / mbtree=0 / crf=16.5000 / qcomp=0.70 / qpmin=0:0:0 / qpmax=69:69:69 / qpstep=4 / vbv_maxrate=50000 / vbv_bufsize=62500 / crf_max=0.0 / nal_hrd=none / ip_ratio=1.30 / pb_ratio=1.20 / aq=1:0.80 / aq-sensitivity=10.00 / aq-factor=1.00:1.00:1.00 / aq2=0 / aq3=0
Language : English
Default : No
Forced : No

Audio
ID : 2
Format : AC-3
Format/Info : Audio Coding 3
Mode extension : CM (complete main)
Codec ID : A_AC3
Duration : 2h 6mn
Bit rate mode : Constant
Bit rate : 384 Kbps
Channel(s) : 6 channels
Channel positions : Front: L C R, Side: L R, LFE
Sampling rate : 48.0 KHz
Bit depth : 16 bits
Compression mode : Lossy
Stream size : 346 MiB (7%)
Default : Yes
Forced : No

Menu
00:00:00.000 : en:Chapter 1
00:05:03.720 : en:Chapter 2
00:07:39.667 : en:Chapter 3
00:08:40.436 : en:Chapter 4
00:10:25.499 : en:Chapter 5
00:13:56.794 : en:Chapter 6
00:16:49.299 : en:Chapter 7
00:19:13.068 : en:Chapter 8
00:22:03.739 : en:Chapter 9
00:26:38.305 : en:Chapter 10
00:28:53.398 : en:Chapter 11
00:30:21.402 : en:Chapter 12
00:33:43.146 : en:Chapter 13
00:38:08.244 : en:Chapter 14
00:42:42.309 : en:Chapter 15
00:44:19.073 : en:Chapter 16
00:47:06.740 : en:Chapter 17
00:52:38.280 : en:Chapter 18
00:54:37.315 : en:Chapter 19
01:00:06.477 : en:Chapter 20
01:06:16.222 : en:Chapter 21
01:11:36.959 : en:Chapter 22
01:16:25.205 : en:Chapter 23
01:19:30.807 : en:Chapter 24
01:22:34.574 : en:Chapter 25
01:27:33.206 : en:Chapter 26
01:30:37.140 : en:Chapter 27
01:33:00.032 : en:Chapter 28
01:36:33.204 : en:Chapter 29
01:40:14.216 : en:Chapter 30
01:43:04.511 : en:Chapter 31
01:46:07.569 : en:Chapter 32
01:51:06.076 : en:Chapter 33
01:53:01.483 : en:Chapter 34
01:55:50.777 : en:Chapter 35
01:57:21.451 : en:Chapter 36




скриншот   скриншот   скриншот  Трейлеры к фильмам [2013-2014]

pb.wtf



Скачать Росомаха: Бессмертный через торрент http://i4.imageban.ru/out/2013/11/18/103c4564995bd2b1471c528d9b9bd5e7.png Скачать фильм Росомаха: Бессмертный через торрент бесплантно в хорошем качестве Описание: Новая глава приключений Росомахи развернётся в Японии, где Логану предстоит выяснить, что острее - когти Росомахи или меч ... 9.7 10 45
Info! Золотая раздача, скачанное не засчитывается.
Торрент: Зарегистрирован [2014-01-29 22:26] · скачан: 473 раз
Статус: √ проверено
Размер: 4.79 GB
Как cкачать? Как скачать Росомаха: Бессмертный через торрент | qTorrent

% Раздел Тема Автор DL S | L
Фильмы [HD 720p, 1080p] (Хороший звук DUB, MVO) [ 6.61 GB ] Росомаха: Бессмертный / The Wolverine [2013 BDRip 1080p HEVC ()] [Extended Cut] Мичман37 Скачать
1 | 0
Фильмы [HD 720p, 1080p] (Хороший звук DUB, MVO) [ 6.19 GB ] Росомаха: Бессмертный / The Wolverine [2013 BDRip-HEVC 1080p ] [Extended Cut] 2xAVO+DUB [] bober100 Скачать
1 | 0
Фильмы (Blu-ray, BD-Remux, HDDVD) [ 37.72 GB ] Росомаха: Бессмертный / The Wolverine [ 2013 Австралия BD Remux ]DUB () [Extended Cut] Ворон Скачать
1 | 0
Фильмы 2013 [DVDrip, WEB-DLRip, HDrip] [ 2.05 GB ] Росомаха: Бессмертный / The Wolverine [2013 Австралия HDRip [Цифровая / Russia] [Theatrical] Ворон Скачать
1 | 1
R.G. Resident & PiratVoice - Фильмы, Видео [ 3.51 GB ] Росомаха: Бессмертный / The Wolverine [2013 HDRip-AVC + Оригинал] от R.G. Resident Dean24 Скачать
1 | 0
Фильмы (Blu-ray, BD-Remux, HDDVD) [ 44.39 GB ] Росомаха: Бессмертный / The Wolverine [ 2013 Австралия Blu-ray CEE от BLUEBIRD / Театральная версия] Ворон Скачать
1 | 0
Фильмы [HD 720p, 1080p] (Хороший звук DUB, MVO) [ 5.38 GB ] Росомаха: Бессмертный / The Wolverine [Театральная версия] [2013 BDRip 720p] + MVO [BaibaKo] + Sub White Smoke Скачать
1 | 0

28-11-2019 20:33  

Отключить всю рекламу на сайте

17-11-2013 22:10 Росомаха: Бессмертный Скачать торрент  

дайте в 3d!!!pb.wtf



17-11-2013 22:22 Росомаха: Бессмертный Скачать торрент  

18-11-2013 20:56 Росомаха: Бессмертный Скачать торрент  

там не айтюнсовый звук, слушать противно(((pb.wtf



20-11-2013 13:50 Росомаха: Бессмертный Скачать торрент  

Mol'tezoni4 писал(а):

там не айтюнсовый звук, слушать противно(((

нормальный звук pb.wtf



26-11-2013 21:12 Росомаха: Бессмертный Скачать торрент  

По сравнению с первым фильмом как небо и земля. Но в принципе смотреть вполне можно.
Со звуком порядок.pb.wtf



29-01-2014 22:46 Росомаха: Бессмертный Скачать торрент  

японские диалоги переведены?...вижу субтитров нет..pb.wtf



    Дорогой пользователь! Огромная просьба, поблагодарите релизера, оцените раздачу и оставьте свои комментарий, если Вы скачали Росомаха: Бессмертный через торрент бесплатно! Внесите свою лепту в развитие PiratBit!
    Комментировать посты могут только пользователи прошедшие не сложную регистрацию
    Показать сообщения:    

    Росомаха: Бессмертный через торрент
    Скачать бесплатно Росомаха: Бессмертный
    Росомаха: Бессмертный скачать торрент
    Росомаха: Бессмертный смотреть онлайн
    Cкачать фильм Росомаха: Бессмертный бесплатно
    Росомаха: Бессмертный скачать торрент в хорошем качестве
    Росомаха: Бессмертный смотреть онлайн бесплатно в хорошем качестве


    Вы не можете начинать темы
    Вы не можете отвечать на сообщения
    Вы не можете редактировать свои сообщения
    Вы не можете удалять свои сообщения
    Вы не можете голосовать в опросах
    Вы не можете прикреплять файлы к сообщениям
    Вы можете скачивать файлы