2 сезон

iTunes

1 сезон

1

iTunes

iTunes

iTunes

1 сезон

RePack

30

ИГРА 18+

pack

ВАЖНО

!!Акция!!

Alien_RageХит недели

RePack

MK11
pack

Забери бонус

RePack

jed

!!Акция!!

Alien_Rage

RePack

fifa19

RePack

Assassins Creed: Odyssey

RePack

NEED FOR SPEED™ PAYBACK

4 сезон

9 сезон

Бесстыжие 9 сезон

Все сериалы

все сериалы на PB.wtf

RePack

FAR CRY 5
  

Линия Марты (4 серии из 4) (Олег Газе) [2014 г., Драма, HDTVRip] pb.wtf

Линия Марты через торрент pb.wtf

Размер: 2.73 GB | Добавлен: 6 лет 9 мес. назад | Торрент скачан:291 раз
Скачать  

30-01-2014 04:01 Линия Марты Скачать торрент  

Линия Марты

Год выпуска: 2014
Страна: Россия
Выпущено: "Всемирные российские студии"
Жанр: Драма
Продолжительность: 4 x ~ 00:45:00
Язык: Русский

Режиссер: Олег Газе
Продюссер: Дмитрий Черкасов, Олег Газе, Лилия Ковалевич
Сценарий: Марина Мареева, Марина Степнова, Олег Газе



В ролях: Мария Аниканова, Александр Робак, Алиса Фрейндлих, Василий Лановой, Николай Иванов, Беата Тышкевич, Тамара Семина, Лидия Федосеева-Шукшина, Михаил Светин, Галина Петрова

Описание: Переезжая на новое место жительство, в старую квартиру в трущебах Петербурга, Ольга и ее дочь Наташка, случайно обнаруживают письмо из далекого блокадного сорок первого года. Письмо мальчика Юры для девочки Марты, которую он невольно обидел, не успев признаться в любви... Поиски Марты становятся для Ольги и Наташки спасением от боли и истинным обретением себя...

Качество: HDTVRip
Формат: AVI
Видео кодек: XviD
Аудио кодек: AC-3
Видео: XviD, ~ 1 767 Kbps, 720x400, 25.000 fps, (Bits/Pixel): 0.245
Аудио: AC-3, 128 Kbps, 2 ch, 48.0 KHz

Код:

Внимание! Раздача ведётся путём добавления новых серий; при каждом добавлении создётся новый торрент. Чтобы начать докачку новой серии, пользователям необходимо сделать следующее:
Остановить скачивание,
Удалить старый торрент у себя из клиента (старые серии удалять не надо),
Скачать новый торрент и запустить его у себя в клиенте вместо старого, при этом указать клиенту путь в старую папку куда и должно происходить скачивание новых серий.
Ваш клиент при этом должен произвести хеширование (проверку) старой папки (если не производит сам - помогите ему сделать это), и будет докачивать только те серии которых у вас ещё нет. Старые серии при этом не удаляются, а продолжают раздаваться!

Eсли вы уже удалили старые серии, то предотвратить повторную закачку старых серий можно, отжав галочку в соответсвующих местах при запуске нового торрента. По возможности, желательно не удалять старые серии как можно дольше чтобы релизёр не столько продолжал раздавать старые серии, а смог сконцентрироваться на новых.

General
Complete name : /home/sb753/files/Linija.Marty.HDTVRip/Linija.Marty.01.HDTVRip.avi
Format : AVI
Format/Info : Audio Video Interleave
File size : 703 MiB
Duration : 51mn 34s
Overall bit rate : 1 904 Kbps
Writing application : VirtualDubMod 1.5.10.3 | www.virtualdub-fr.org || (build 2550/release)
Writing library : VirtualDubMod build 2550/release

Video
ID : 0
Format : MPEG-4 Visual
Format profile : Advanced Simple@L5
Format settings, BVOP : 2
Format settings, QPel : No
Format settings, GMC : No warppoints
Format settings, Matrix : Default (H.263)
Codec ID : XVID
Codec ID/Hint : XviD
Duration : 51mn 34s
Bit rate : 1 767 Kbps
Width : 720 pixels
Height : 400 pixels
Display aspect ratio : 16:9
Frame rate : 25.000 fps
Color space : YUV
Chroma subsampling : 4:2:0
Bit depth : 8 bits
Scan type : Progressive
Compression mode : Lossy
Bits/(Pixel*Frame) : 0.245
Stream size : 652 MiB (93%)
Writing library : XviD 1.2.1 (UTC 2008-12-04)

Audio
ID : 1
Format : AC-3
Format/Info : Audio Coding 3
Mode extension : CM (complete main)
Format settings, Endianness : Big
Codec ID : 2000
Duration : 51mn 34s
Bit rate mode : Constant
Bit rate : 128 Kbps
Channel(s) : 2 channels
Channel positions : Front: L R
Sampling rate : 48.0 KHz
Bit depth : 16 bits
Compression mode : Lossy
Stream size : 47.2 MiB (7%)
Alignment : Split accross interleaves
Interleave, duration : 40 ms (1.00 video frame)
Interleave, preload duration : 500 ms
pb.wtf



Скачать Линия Марты через торрент http://pic.kartinco.top/images/6/rsk33.jpg Скачать фильм Линия Марты через торрент бесплантно в хорошем качестве Описание: Переезжая на новое место жительство, в старую квартиру в трущебах Петербурга, Ольга и ее дочь Наташка, случайно обнаруживают ... 9.2 10 13
Info! Золотая раздача, скачанное не засчитывается.
Торрент: Зарегистрирован [2014-01-30 17:57] · скачан: 291 раз
Статус: √ проверено
Размер: 2.73 GB
Как cкачать? Как скачать Линия Марты через торрент | qTorrent

% Раздел Тема Автор DL S | L
Наши сериалы [ 2.81 GB ] Линия Марты [2014 SATRip] Mladenec Скачать
1 | 0

28-11-2019 20:33  

Отключить всю рекламу на сайте

30-01-2014 19:12 Линия Марты Скачать торрент  

Алиса Фрейндлих, Василий Лановой, достойны вечного уважения. Ради них качну и посмотрю.pb.wtf



31-01-2014 14:53 Линия Марты Скачать торрент  

Фильм действительно достойный, советую всем.pb.wtf



31-01-2014 16:37 Линия Марты Скачать торрент  

дайте скорости плpb.wtf



04-02-2014 18:33 Линия Марты Скачать торрент  

Спасибо. Тронул за живое. Могут же делать достойное кино.pb.wtf



    Дорогой пользователь! Огромная просьба, поблагодарите релизера, оцените раздачу и оставьте свои комментарий, если Вы скачали Линия Марты через торрент бесплатно! Внесите свою лепту в развитие PiratBit!
    Комментировать посты могут только пользователи прошедшие не сложную регистрацию
    Показать сообщения:    

    Линия Марты через торрент
    Скачать бесплатно Линия Марты
    Линия Марты скачать торрент
    Линия Марты смотреть онлайн
    Cкачать фильм Линия Марты бесплатно
    Линия Марты скачать торрент в хорошем качестве
    Линия Марты смотреть онлайн бесплатно в хорошем качестве


    Вы не можете начинать темы
    Вы не можете отвечать на сообщения
    Вы не можете редактировать свои сообщения
    Вы не можете удалять свои сообщения
    Вы не можете голосовать в опросах
    Вы не можете прикреплять файлы к сообщениям
    Вы можете скачивать файлы