2 сезон

iTunes

1 сезон

1

iTunes

iTunes

iTunes

1 сезон

RePack

30

ИГРА 18+

pack

ВАЖНО

!!Акция!!

Alien_RageХит недели

RePack

MK11
pack

Забери бонус

RePack

jed

!!Акция!!

Alien_Rage

RePack

fifa19

RePack

Assassins Creed: Odyssey

RePack

NEED FOR SPEED™ PAYBACK

4 сезон

9 сезон

Бесстыжие 9 сезон

Все сериалы

все сериалы на PB.wtf

RePack

FAR CRY 5
  

Игрушка / Le Jouet (Франсис Вебер) [1976 г., комедия, BDRip 1080p, DUB + 2xMVO + DVO + Original French] pb.wtf

Игрушка через торрент pb.wtf

Размер: 9.32 GB | Добавлен: 6 лет 9 мес. назад | Торрент скачан:138 раз
Скачать  

30-01-2014 11:55 Игрушка Скачать торрент  

Игрушка / Le JouetГод выпуска: 1976
Страна: Франция
Жанр: комедия,
Продолжительность: 01:33:53
Перевод: Дублированный, профессиональный многоголосый, профессиональный двухголосый
Субтитры: Русские, французские

Режиссер: Франсис Вебер
Сценарий: Франсис Вебер

Премьера в мире: 8 декабря 1976






В ролях: Пьер Ришар, Мишель Буке, Фабрис Греко, Жак Франсуа, Даниэль Секкальди, Шарль Жерар, Мишель Омон, Сьюзи Дайсон, Жерар Жюньо, Мишель Робен, Мишель Сэнд, Аликс Махье, Лин Шардонне, Ив Барсак, Серж Берри, Ева Дарлан, Мари Фрэй, Пол Хорн, Жан Ланье, Анри Лоран, Роже Мюни, Андре Нэйдер, Жаклин Ноэль, Роже Риффар, Мишель Руль




Описание: Стать игрушкой для малолетнего миллионера — ситуация не для слабонервных. Герой Пьера Ришара отлично справляется с ролью ужасного ребенка и, вместе с подопечным, отрывается на полную катушку.Остановить «детский беспредел» оказывается не так просто. Особенно если учесть, что Франсуа Перрен стал для ребенка единственным по-настоящему любимым человеком…




Качество: BDRip 1080p
Формат: MKV
Видео кодек: MPEG4 AVC
Аудио кодек: AC3
Видео: MPEG-4 AVC, 13 Mбит/с, 1792x1076, 23.976 кадр/с
Аудио#1: Русский (AC3, 6 ch, 448 Кбит/с, 48,0 КГц) / Профессиональный многоголосый (CP-Digital)
Аудио#2: Русский (AC3, 2 ch, 192 Кбит/с, 48,0 КГц) / Дублированный (Советский)
Аудио#3: Русский (AC3, 2 ch, 192 Кбит/с, 48,0 КГц) / Профессиональный многоголосый (ОРТ)
Аудио#4: Русский (AC3, 2 ch, 192 Кбит/с, 48,0 КГц) / Профессиональный двухголосый (Рен-ТВ/ТВЦ)
Аудио#5: Французский (AC3, 2 ch, 192 Кбит/с, 48,0 КГц)
Релиз от:
скриншот   скриншот   скриншот   скриншот   скриншот   скриншот   скриншот   скриншот   скриншот   скриншот  

Общее
Уникальный идентификатор : 182438529595313967256811155897301993004 (0x894061F9A8F579C0B46EFDB44F86062C)
Полное имя : D:Mои раздачиIgrushka.1976.BDRip.(1080p)-MediaClub.mkv
Формат : Matroska
Версия формата : Version 4 / Version 2
Размер файла : 9,32 Гбайт
Продолжительность : 1 ч. 33 м.
Общий поток : 14,2 Мбит/сек
Название фильма : -=MediaClub-kaspr=-
Дата кодирования : UTC 2014-01-30 07:53:03
Программа кодирования : mkvmerge v6.1.0 ('Old Devil') built on Mar 4 2013 09:10:42
Библиотека кодирования : libebml v1.3.0 + libmatroska v1.4.0

Видео
Идентификатор : 1
Формат : AVC
Формат/Информация : Advanced Video Codec
Профиль формата : High@L4.1
Параметр CABAC формата : Да
Параметр ReFrames формата : 4 кадра
Идентификатор кодека : V_MPEG4/ISO/AVC
Продолжительность : 1 ч. 33 м.
Битрейт : 13,0 Мбит/сек
Ширина : 1792 пикселя
Высота : 1076 пикселей
Соотношение сторон : 1,665
Режим частоты кадров : Постоянный
Частота кадров : 23,976 кадра/сек
Цветовое пространство : YUV
Субдискретизация насыщенности : 4:2:0
Битовая глубина : 8 бит
Тип развёртки : Прогрессивная
Бит/(Пиксели*Кадры) : 0.281
Размер потока : 8,34 Гбайт (89%)
Заголовок : -=MediaClub-kaspr=-
Библиотека кодирования : x264 core 130 r2273 b3065e6
Настройки программы : cabac=1 / ref=4 / deblock=1:-3:-3 / analyse=0x3:0x133 / me=umh / subme=11 / psy=1 / psy_rd=1.00:0.20 / mixed_ref=1 / me_range=32 / chroma_me=1 / trellis=2 / 8x8dct=1 / cqm=0 / deadzone=21,11 / fast_pskip=0 / chroma_qp_offset=-3 / threads=12 / lookahead_threads=2 / sliced_threads=0 / nr=0 / decimate=0 / interlaced=0 / bluray_compat=0 / constrained_intra=0 / bframes=8 / b_pyramid=2 / b_adapt=2 / b_bias=0 / direct=3 / weightb=1 / open_gop=0 / weightp=2 / keyint=240 / keyint_min=23 / scenecut=40 / intra_refresh=0 / rc=2pass / mbtree=0 / bitrate=13000 / ratetol=1.0 / qcomp=0.60 / qpmin=0 / qpmax=69 / qpstep=4 / cplxblur=20.0 / qblur=0.5 / ip_ratio=1.40 / pb_ratio=1.30 / aq=1:1.00
Язык : English
Default : Да
Forced : Нет

Аудио #1
Идентификатор : 2
Формат : AC-3
Формат/Информация : Audio Coding 3
Расширение режима : CM (complete main)
Параметр Endianness формата : Big
Идентификатор кодека : A_AC3
Продолжительность : 1 ч. 33 м.
Вид битрейта : Постоянный
Битрейт : 448 Кбит/сек
Каналы : 6 каналов
Расположение каналов : Front: L C R, Side: L R, LFE
Частота : 48,0 КГц
Битовая глубина : 16 бит
Метод сжатия : С потерями
Размер потока : 301 Мбайт (3%)
Заголовок : MVO-CP-Digital
Язык : Russian
Default : Да
Forced : Да

Аудио #2
Идентификатор : 3
Формат : AC-3
Формат/Информация : Audio Coding 3
Расширение режима : CM (complete main)
Параметр Endianness формата : Big
Идентификатор кодека : A_AC3
Продолжительность : 1 ч. 33 м.
Вид битрейта : Постоянный
Битрейт : 192 Кбит/сек
Каналы : 2 канала
Расположение каналов : Front: L R
Частота : 48,0 КГц
Битовая глубина : 16 бит
Метод сжатия : С потерями
Размер потока : 129 Мбайт (1%)
Заголовок : Дубляж
Язык : Russian
Default : Нет
Forced : Нет

Аудио #3
Идентификатор : 4
Формат : AC-3
Формат/Информация : Audio Coding 3
Расширение режима : CM (complete main)
Параметр Endianness формата : Big
Идентификатор кодека : A_AC3
Продолжительность : 1 ч. 33 м.
Вид битрейта : Постоянный
Битрейт : 192 Кбит/сек
Каналы : 2 канала
Расположение каналов : Front: L R
Частота : 48,0 КГц
Битовая глубина : 16 бит
Метод сжатия : С потерями
Размер потока : 129 Мбайт (1%)
Заголовок : MVO (OPT)
Язык : Russian
Default : Нет
Forced : Нет

Аудио #4
Идентификатор : 5
Формат : AC-3
Формат/Информация : Audio Coding 3
Расширение режима : CM (complete main)
Параметр Endianness формата : Big
Идентификатор кодека : A_AC3
Продолжительность : 1 ч. 33 м.
Вид битрейта : Постоянный
Битрейт : 192 Кбит/сек
Каналы : 2 канала
Расположение каналов : Front: L R
Частота : 48,0 КГц
Битовая глубина : 16 бит
Метод сжатия : С потерями
Размер потока : 129 Мбайт (1%)
Заголовок : DVO
Язык : Russian
Default : Нет
Forced : Нет

Аудио #5
Идентификатор : 6
Формат : AC-3
Формат/Информация : Audio Coding 3
Расширение режима : CM (complete main)
Параметр Endianness формата : Big
Идентификатор кодека : A_AC3
Продолжительность : 1 ч. 33 м.
Вид битрейта : Постоянный
Битрейт : 192 Кбит/сек
Каналы : 2 канала
Расположение каналов : Front: L R
Частота : 48,0 КГц
Битовая глубина : 16 бит
Метод сжатия : С потерями
Размер потока : 129 Мбайт (1%)
Язык : French
Default : Нет
Forced : Нет

Текст #1
Идентификатор : 7
Формат : UTF-8
Идентификатор кодека : S_TEXT/UTF8
Идентификатор кодека/Информация : UTF-8 Plain Text
Язык : Russian
Default : Нет
Forced : Нет

Текст #2
Идентификатор : 8
Формат : UTF-8
Идентификатор кодека : S_TEXT/UTF8
Идентификатор кодека/Информация : UTF-8 Plain Text
Язык : French
Default : Нет
Forced : Нет

Меню
00:00:00.000 : en:Chapter 01
00:05:01.926 : en:Chapter 02
00:10:25.791 : en:Chapter 03
00:15:03.861 : en:Chapter 04
00:23:10.806 : en:Chapter 05
00:30:06.179 : en:Chapter 06
00:35:06.729 : en:Chapter 07
00:43:40.826 : en:Chapter 08
00:48:41.585 : en:Chapter 09
00:54:45.323 : en:Chapter 10
00:59:22.308 : en:Chapter 11
01:08:46.330 : en:Chapter 12
01:15:54.091 : en:Chapter 13
01:21:45.358 : en:Chapter 14
01:26:32.520 : en:Chapter 15
01:32:03.643 : en:Chapter 16


Игрушка скачать торрент


pb.wtf



Скачать Игрушка через торрент http://pic.kartinco.top/images/6/nvn3u.jpg Скачать фильм Игрушка через торрент бесплантно в хорошем качестве Описание: Стать игрушкой для малолетнего миллионера — ситуация не для слабонервных. Герой Пьера Ришара отлично справляется с ролью ужасного ... 10 10 6
Info! Золотая раздача, скачанное не засчитывается.
Торрент: Зарегистрирован [2014-01-30 11:55] · скачан: 138 раз
Статус: √ проверено
Размер: 9.32 GB
Как cкачать? Как скачать Игрушка через торрент | qTorrent

% Раздел Тема Автор DL S | L
Фильмы (Blu-ray, BD-Remux, HDDVD) [ 30.4 GB ] Игрушка / Le jouet [1976 Blu-ray 1080p] Dub MVO DVO Russian Mafia Скачать
1 | 0
Фильмы [HD 720p, 1080p] (Хороший звук DUB, MVO) [ 4.37 GB ] Игрушка / Le jouet [1976 BDRip 720p] DUB 2xMVO DVO _denis_100 Скачать
1 | 0

28-11-2019 20:33  

Отключить всю рекламу на сайте

    Дорогой пользователь! Огромная просьба, поблагодарите релизера, оцените раздачу и оставьте свои комментарий, если Вы скачали Игрушка через торрент бесплатно! Внесите свою лепту в развитие PiratBit!
    Комментировать посты могут только пользователи прошедшие не сложную регистрацию
    Показать сообщения:    

    Игрушка через торрент
    Скачать бесплатно Игрушка
    Игрушка скачать торрент
    Игрушка смотреть онлайн
    Cкачать фильм Игрушка бесплатно
    Игрушка скачать торрент в хорошем качестве
    Игрушка смотреть онлайн бесплатно в хорошем качестве


    Вы не можете начинать темы
    Вы не можете отвечать на сообщения
    Вы не можете редактировать свои сообщения
    Вы не можете удалять свои сообщения
    Вы не можете голосовать в опросах
    Вы не можете прикреплять файлы к сообщениям
    Вы можете скачивать файлы