Достать ножи: Стеклянная луковица

MVO

Добыча

Дубляж

Уэнсдэй

1 сезон

Тор

Дубляж

13 клиническая

1 сезон

Жестокая ночь

MVO

Одни из нас

1 сезон

Deluxe

pack

Рекомендуем

30

Пиратка

ВАЖНО

ВАЖНО

Ghostwire

Пиратка

jed

RePack

nioh2

RePack

RDR2

RePack

NEED FOR SPEED™ PAYBACK

RePack

скачать торрент

Кинопоиск HD

Острые козырьки 6 сезон

6 сезон

FAR CRY 6

RePack

скачать торрент

Лицензия

скачать торрент

MVO

1

1 сезон

скачать торрент

1 сезон

скачать торрент

Лицензия

  

Заложники / Hostages / Сезон: 1 / Серии: 1-15 из 15 (Генри Брончтейн, Фил Абрахам, Мэтт Эрл Бисли) [2013-2014, США, WEB-DLRip, Любительский многоголосый |Viruse Project|]

Заложники через торрент pb.wtf

Размер: 7.68 GB | Добавлен: 8 лет 11 мес. назад | Торрент скачан:39 раз
Смотреть онлайн | Скачать | Поддержите нас   

30-01-2014 12:18 Заложники Скачать торрент  

Заложники / Hostages

Год выпуска: 2013 -2014
Страна: США
Жанр: Драма, криминал, боевик
Выпущено: Jerry Bruckheimer Television, Warner Bros. Television
Продолжительность: 15 x ~ 00:43:00
Перевод: Любительский многоголосый |Viruse Project|
Озвучка: Алла Блаер, Татьяна Романовская, Марина Видякина, Борис Александров, Дмитрий Иванов
Перевод: Нотабеноид
Монтаж: Татьяна Романовская
Сведение звука, подготовка видео: viruse (Виталий Емельянов)

Режиссер: Генри Брончтейн Фил Абрахам Мэтт Эрл Бисли
Продюссер: Алон Араня, Майк Аззолино, Джозеф Бергер-Дэвис
Сценарий: Джеффри Начманофф, Алон Араня, Омри Гивон
Премьера в мире: 23 сентября 2013

IMDB 6.80 (4593)


В ролях: Тони Коллетт, Дилан МакДермотт, Тейт Донован, Куинн Шепард, Матеус Уорд, Билли Браун, Сандрин Холт, Риз Койро, Джеймс Нафтон, Джереми Бобб

Описание: Политическая история тяжелой драмы расскажет о заговоре бывших агентов ФБР, которые решают собраться в группу и любым способом убить президента США. Мотивы у них разные , но как дойти до первого человека страны. Целью стала доктор Эллен Сандерс, именно она работает в Белом доме и следит за здоровьем президента. Теперь для Эллен есть только один выход сделать грязную работу, ведь она оказалась заложницей изгоев ФБР, которые захватили ее и ее семью. Теперь они заложники и ультиматум поставлен для Эллен, она должна убить президента или быть свидетельницей убийства ее детей и мужа...

Качество: WEB-DLRip
Формат: AVI
Видео кодек: XviD
Аудио кодек: MP3
Видео: XviD, ~ 1500 Kbps, 720x400, 23.976 fps, (Bits/Pixel): 0.216
Аудио: MP3 , 2 ch, 192 Kbps, 48.0 KHz
General
Complete name : /home/sb753/files/Hostages.S01.ViruseProject/Hostages.S01E12.ViruseProject.avi
Format : AVI
Format/Info : Audio Video Interleave
File size : 527 MiB
Duration : 43mn 38s
Overall bit rate : 1 690 Kbps
Writing application : VirtualDubMod 1.5.10.2 (build 2540/release)
Writing library : VirtualDubMod build 2540/release

Video
ID : 0
Format : MPEG-4 Visual
Format profile : Advanced [email protected]
Format settings, BVOP : 1
Format settings, QPel : No
Format settings, GMC : No warppoints
Format settings, Matrix : Default (MPEG)
Codec ID : XVID
Codec ID/Hint : XviD
Duration : 43mn 38s
Bit rate : 1 488 Kbps
Width : 720 pixels
Height : 400 pixels
Display aspect ratio : 16:9
Frame rate : 23.976 fps
Color space : YUV
Chroma subsampling : 4:2:0
Bit depth : 8 bits
Scan type : Progressive
Compression mode : Lossy
Bits/(Pixel*Frame) : 0.216
Stream size : 465 MiB (88%)
Writing library : XviD 1.2.1 (UTC 2008-12-04)

Audio
ID : 1
Format : MPEG Audio
Format version : Version 1
Format profile : Layer 3
Mode : Joint stereo
Mode extension : MS Stereo
Codec ID : 55
Codec ID/Hint : MP3
Duration : 43mn 38s
Bit rate mode : Constant
Bit rate : 192 Kbps
Channel(s) : 2 channels
Sampling rate : 48.0 KHz
Compression mode : Lossy
Stream size : 59.9 MiB (11%)
Alignment : Split accross interleaves
Interleave, duration : 42 ms (1.00 video frame)
Interleave, preload duration : 500 ms



Скачать Заложники через торрент http://i3-imageban-ru.translate.goog/out/2014/01/30/f68661ddcc82b56ca1081a83f17a944a.png Скачать, смотреть онлайн Заложники бесплантно в хорошем качестве Описание: Политическая история тяжелой драмы расскажет о заговоре бывших агентов ФБР, которые решают собраться в группу и любым способом ... 8.8 10 4
Info! Золотая раздача, скачанное не засчитывается.
Торрент: Зарегистрирован [2014-01-30 12:18] · скачан: 39 раз
Статус: √ проверено
Размер: 7.68 GB
Как cкачать? Как скачать Заложники через торрент | UTorrent

28-11-2019 20:33  


Отключить вcю реклaмy на сайте, в т.ч. и в плеере онлайн просмотра!

    Дорогой пользователь! Огромная просьба, поблагодарите релизера, оцените раздачу и оставьте свои комментарий, если Вы скачали Заложники через торрент бесплатно!!
    Комментировать посты могут только пользователи прошедшие не сложную регистрацию
    Показать сообщения:    


    Заложники через торрент
    Скачать бесплатно Заложники
    Заложники скачать торрент
    Заложники смотреть онлайн
    Cкачать фильм Заложники бесплатно
    Заложники скачать торрент в хорошем качестве
    Заложники смотреть онлайн бесплатно в хорошем качестве
    Вы не можете начинать темы
    Вы не можете отвечать на сообщения
    Вы не можете редактировать свои сообщения
    Вы не можете удалять свои сообщения
    Вы не можете голосовать в опросах
    Вы не можете прикреплять файлы к сообщениям
    Вы можете скачивать файлы
    Заложники / Hostages / Сезон: 1 / Серии: 1-15 из 15 [2013-2014, США, WEB-DLRip, Любительский многоголосый |Viruse Project|] смотреть онлайн, скачать торрент picoco.icu