2 сезон

iTunes

MVO

1

2 сезон

iTunes

1 сезон

1 сезон

RePack

30

Новинка

ВАЖНО

ИГРА 18+

pack

RePack

MK11
pack

Легкие деньги

RePack

jed

RePack

fifa19

RePack

RDR2

RePack

NEED FOR SPEED™ PAYBACK

4 сезон

9 сезон

Бесстыжие 9 сезон

Все сериалы

все сериалы на PB.wtf

RePack

FAR CRY 5

Anonymous, добрый вечер, мы не успеваем собрать деньги на оплату серверов за декабрь и январь, помогите нам пожалуйста в это трудное время. В качестве благодарности мы отключим Вам всю рекламу на сайте (укажите свой ник в строку Ваше имя)!

×
  
Magnet ссылка

Безумно влюбленный: Мюзикл / Lovestruck: The Musical (Санаа Хамри) [2013 г., комедия, фэнтези, мюзикл, WEB-DLRip, Профессиональный двухголосый] pb.wtf

Безумно влюбленный: Мюзикл через торрент pb.wtf

Размер: 1.46 GB | Добавлен: 6 лет 11 мес. назад | Торрент скачан:101 раз
Скачать  

30-01-2014 13:29 Безумно влюбленный: Мюзикл Скачать торрент  

Безумно влюбленный: Мюзикл / Lovestruck: The Musical

Год выпуска: 2013
Страна: США
Выпущено: Boss Productions
Жанр: комедия, фэнтези, мюзикл
Продолжительность: 01:25:51
Перевод: Профессиональный двухголосый [Cтудия Elrom]

Режиссер: Санаа Хамри
Продюссер: Дебра Мартин Чейз, Гэйлин Фрайч, Салли Ньюман
Сценарий: Джейлинн Бэйли, Терри Россио
Премьера в мире: 21 апреля 2013

IMDB 6.30 (674)


В ролях: Челси Кейн, Эндрю Сили, Сара Пэкстон, Эдриэнн Байлон, Джейн Сеймур, Том Вопат, Александр ДиПерсиа, Тони Амен, Пьетро Арпеселла, Сэмми Чекутти,

Описание: Герой фильма — молодой человек, который является душой любой компании, Он — отличный танцор и красавец, но ему никак не удается встретить девушку своей мечты. И вот однажды на вечеринке он встретил белокурое создание, которое полностью покорило его сердце. При этом милая хрупкая девушка еще и прекрасно танцует. Вместе они смогут покорить все танцполы мира, тем более, что ими будет двигать общая любовь к танцу и друг к другу. И, возможно, эта удивительная история наконец-то закончится хэппи-эндом.

Качество: WEB-DLRip
Формат: AVI
Видео кодек: XviD
Аудио кодек: AC3
Видео: XviD, 1844 Kb/s, 720x400, 23.976 fps, (Bits/Pixel): 0.267
Аудио#1: Russian: AC3, 192 Kb/s, 2 ch, 48.0 KHz
Аудио#2: English: AC3, 384 Kb/s, 6 ch, 48.0 KHz
General
Complete name : /home/sb753/files/Bezumno.Vlublennyj.Muzikl.2013.Web-DLRip.avi
Format : AVI
Format/Info : Audio Video Interleave
File size : 1.46 GiB
Duration : 1h 25mn
Overall bit rate : 2 435 Kbps
Writing application : VirtualDubMod 1.5.10.3 (build 2550/release)
Writing library : VirtualDubMod build 2550/release

Video
ID : 0
Format : MPEG-4 Visual
Format profile : Advanced Simple@L5
Format settings, BVOP : 2
Format settings, QPel : No
Format settings, GMC : No warppoints
Format settings, Matrix : Custom
Codec ID : XVID
Codec ID/Hint : XviD
Duration : 1h 25mn
Bit rate : 1 845 Kbps
Width : 720 pixels
Height : 400 pixels
Display aspect ratio : 16:9
Frame rate : 23.976 fps
Color space : YUV
Chroma subsampling : 4:2:0
Bit depth : 8 bits
Scan type : Progressive
Compression mode : Lossy
Bits/(Pixel*Frame) : 0.267
Stream size : 1.11 GiB (76%)
Writing library : XviD 64

Audio #1
ID : 1
Format : AC-3
Format/Info : Audio Coding 3
Mode extension : CM (complete main)
Format settings, Endianness : Big
Codec ID : 2000
Duration : 1h 25mn
Bit rate mode : Constant
Bit rate : 192 Kbps
Channel(s) : 2 channels
Channel positions : Front: L R
Sampling rate : 48.0 KHz
Bit depth : 16 bits
Compression mode : Lossy
Stream size : 118 MiB (8%)
Alignment : Split accross interleaves
Interleave, duration : 42 ms (1.00 video frame)
Interleave, preload duration : 500 ms

Audio #2
ID : 2
Format : AC-3
Format/Info : Audio Coding 3
Mode extension : CM (complete main)
Format settings, Endianness : Big
Codec ID : 2000
Duration : 1h 25mn
Bit rate mode : Constant
Bit rate : 384 Kbps
Channel(s) : 6 channels
Channel positions : Front: L C R, Side: L R, LFE
Sampling rate : 48.0 KHz
Bit depth : 16 bits
Compression mode : Lossy
Stream size : 236 MiB (16%)
Alignment : Split accross interleaves
Interleave, duration : 42 ms (1.00 video frame)
Interleave, preload duration : 500 ms
pb.wtf



Скачать Безумно влюбленный: Мюзикл через торрент http://i3.imageban.ru/out/2014/01/30/19e11568cee5e43c58f00fdbac42c898.png Скачать фильм Безумно влюбленный: Мюзикл через торрент бесплантно в хорошем качестве Описание: Герой фильма — молодой человек, который является душой любой компании, Он — отличный танцор и красавец, но ему никак не удается ... 9.6 10 7
Info! Золотая раздача, скачанное не засчитывается.
Торрент: Зарегистрирован [2014-01-30 13:29] · скачан: 101 раз
Статус: √ проверено
Размер: 1.46 GB
Как cкачать? Как скачать Безумно влюбленный: Мюзикл через торрент | UTorrent

28-11-2019 20:33  

Отключить всю рекламу на сайте

    Дорогой пользователь! Огромная просьба, поблагодарите релизера, оцените раздачу и оставьте свои комментарий, если Вы скачали Безумно влюбленный: Мюзикл через торрент бесплатно! Внесите свою лепту в развитие PiratBit!
    Комментировать посты могут только пользователи прошедшие не сложную регистрацию
    Показать сообщения:    

    Безумно влюбленный: Мюзикл через торрент
    Скачать бесплатно Безумно влюбленный: Мюзикл
    Безумно влюбленный: Мюзикл скачать торрент
    Безумно влюбленный: Мюзикл смотреть онлайн
    Cкачать фильм Безумно влюбленный: Мюзикл бесплатно
    Безумно влюбленный: Мюзикл скачать торрент в хорошем качестве
    Безумно влюбленный: Мюзикл смотреть онлайн бесплатно в хорошем качестве


    Вы не можете начинать темы
    Вы не можете отвечать на сообщения
    Вы не можете редактировать свои сообщения
    Вы не можете удалять свои сообщения
    Вы не можете голосовать в опросах
    Вы не можете прикреплять файлы к сообщениям
    Вы можете скачивать файлы