Ссылка на приватное зеркало нашего сайта всего за 1$. Внимание количество ограничено!!!

2 сезон

iTunes

1 сезон

1

iTunes

iTunes

iTunes

1 сезон

RePack

30

ИГРА 18+

pack

ВАЖНО

!!Акция!!

Alien_RageХит недели

RePack

MK11
pack

Забери бонус

RePack

jed

!!Акция!!

Alien_Rage

RePack

fifa19

RePack

Assassins Creed: Odyssey

RePack

NEED FOR SPEED™ PAYBACK

4 сезон

9 сезон

Бесстыжие 9 сезон

Все сериалы

все сериалы на PB.wtf

RePack

FAR CRY 5
  

Заклятие / The Conjuring (Джеймс Ван / James Wan) [2013, ужасы, триллер, биография, BDRip 1080p, DUB] [Лицензия] pb.wtf

Заклятие через торрент pb.wtf

Размер: 14.59 GB | Добавлен: 6 лет 8 мес. назад | Торрент скачан:407 раз
Скачать  

30-10-2013 17:47 Заклятие Скачать торрент  

Заклятие / The Conjuring

Год выпуска : 2013
Страна: США
Жанр: Ужасы, триллер, биография

Продолжительность: 01:51:58
Перевод: Дубляж [Лицензия]

Субтитры: Русские (Forced, Blu-ray CEE); Английские (Full, SDH, SDH-COLORED)
Режиссер: Джеймс Ван / James Wan
В ролях: Вера Фармига (Lorraine Warren), Патрик Уилсон (Ed Warren), Рон Ливингстон (Roger Perron), Лили Тейлор (Carolyn Perron), Шэнли Касвелл (Andrea), Хейли МакФарланд (Nancy), Джои Кинг (Christine), Маккензи Фой (Cindy), Кайла Дивер (April), Шэннон Кук-Чун (Drew), Джон Бразертон (Brad), Стерлинг Джеринс (Judy Warren)
Описание: В основе картины лежит реальная история семьи Перрон, которые утверждали, что жили в окружении привидений, как добрых, так и злых. Духи населяли дом на Род-Айленде, в котором Перроны проживали в семидесятых годах XX века.
Рейтинг

imdb.com: 7.60 (102 886)
MPAA: R - Лицам до 17 лет обязательно присутствие взрослого
Качество: BDRip 1080p
Формат: MKV
Видео кодек: AVC
Аудио кодек: AC3/DTS
Видео: AVC, 1920x798 (2.40:1), 14411 kbps, 23,976 fps
Аудио №1: AC3 / 5.1 / 48 kHz / 640 kbps / 16 bit Дубляж (Blu-Ray CEE)
Аудио №2: AC3 / 5.1 / 48 kHz / 448 kbps / 16 bit Дубляж (Пираты)
Аудио №3: AC3 / 5.1 / 48 kHz / 640 kbps / 16 bit Любительский (ХиХиДок)
Аудио №4: DTS / 5.1 / 48 kHz / 1510 kbps / 24 bit Английский
Аудио №5: AC3 / 5.1 / 48 kHz / 640 kbps / 16 bit Английский

General
Unique ID : 211498101856220063590474030200964812451 (0x9F1D0D81533EC0708198E69FBB288EA3)
Complete name : H:The.Conjuring.2013.[1080p].BDRip.mkv
Format : Matroska
Format version : Version 4 / Version 2
File size : 14.6 GiB
Duration : 1h 51mn
Overall bit rate : 18.7 Mbps
Movie name : The Conjuring (2013)
Encoded date : UTC 2013-10-30 10:08:12
Writing application : mkvmerge v6.5.0 ('Isn't she lovely') built on Oct 20 2013 12:50:05
Writing library : libebml v1.3.0 + libmatroska v1.4.1
Attachment : Yes

Video
ID : 1
Format : AVC
Format/Info : Advanced Video Codec
Format profile : High@L4.1
Format settings, CABAC : Yes
Format settings, ReFrames : 5 frames
Codec ID : V_MPEG4/ISO/AVC
Duration : 1h 51mn
Bit rate : 14.4 Mbps
Width : 1 920 pixels
Height : 798 pixels
Display aspect ratio : 2.40:1
Frame rate : 23.976 fps
Color space : YUV
Chroma subsampling : 4:2:0
Bit depth : 8 bits
Scan type : Progressive
Bits/(Pixel*Frame) : 0.392
Stream size : 11.3 GiB (77%)
Title : The Conjuring (2013)
Writing library : x264 core 138 r2358kMod 9e941d1
Encoding settings : cabac=1 / ref=5 / deblock=1:-3:-3 / analyse=0x3:0x133 / me=umh / subme=10 / psy=1 / fade_compensate=0.00 / psy_rd=1.15:0.00 / mixed_ref=1 / me_range=24 / chroma_me=1 / trellis=2 / 8x8dct=1 / cqm=0 / deadzone=21,11 / fast_pskip=0 / chroma_qp_offset=-2 / threads=3 / lookahead_threads=1 / sliced_threads=0 / nr=0 / decimate=0 / interlaced=0 / bluray_compat=0 / constrained_intra=0 / bframes=6 / b_pyramid=2 / b_adapt=2 / b_bias=0 / direct=3 / weightb=1 / open_gop=0 / weightp=2 / keyint=250 / keyint_min=23 / scenecut=40 / intra_refresh=0 / rc_lookahead=60 / rc=crf / mbtree=0 / crf=16.6660 / qcomp=0.75 / qpmin=0 / qpmax=69 / qpstep=4 / vbv_maxrate=50000 / vbv_bufsize=62500 / crf_max=0.0 / nal_hrd=none / ip_ratio=1.10 / pb_ratio=1.00 / aq=3:0.50
Language : English
Default : Yes
Forced : No

Audio #1
ID : 2
Format : AC-3
Format/Info : Audio Coding 3
Mode extension : CM (complete main)
Codec ID : A_AC3
Duration : 1h 51mn
Bit rate mode : Constant
Bit rate : 640 Kbps
Channel(s) : 6 channels
Channel positions : Front: L C R, Side: L R, LFE
Sampling rate : 48.0 KHz
Bit depth : 16 bits
Compression mode : Lossy
Stream size : 513 MiB (3%)
Title : [Blu-ray CEE] - дубляж (лицензия)
Language : Russian
Default : Yes
Forced : No

Audio #2
ID : 3
Format : AC-3
Format/Info : Audio Coding 3
Mode extension : CM (complete main)
Codec ID : A_AC3
Duration : 1h 51mn
Bit rate mode : Constant
Bit rate : 448 Kbps
Channel(s) : 6 channels
Channel positions : Front: L C R, Side: L R, LFE
Sampling rate : 48.0 KHz
Bit depth : 16 bits
Compression mode : Lossy
Stream size : 359 MiB (2%)
Title : [Пираты] - альт. дубляж
Language : Russian
Default : No
Forced : No

Audio #3
ID : 4
Format : AC-3
Format/Info : Audio Coding 3
Mode extension : CM (complete main)
Codec ID : A_AC3
Duration : 1h 51mn
Bit rate mode : Constant
Bit rate : 640 Kbps
Channel(s) : 6 channels
Channel positions : Front: L C R, Side: L R, LFE
Sampling rate : 48.0 KHz
Bit depth : 16 bits
Compression mode : Lossy
Stream size : 513 MiB (3%)
Title : [ХиХиДок] - одноголосый
Language : Russian
Default : No
Forced : No

Audio #4
ID : 5
Format : DTS
Format/Info : Digital Theater Systems
Codec ID : A_DTS
Duration : 1h 51mn
Bit rate mode : Constant
Bit rate : 1 510 Kbps
Channel(s) : 6 channels
Channel positions : Front: L C R, Side: L R, LFE
Sampling rate : 48.0 KHz
Bit depth : 24 bits
Compression mode : Lossy
Delay relative to video : 11ms
Stream size : 1.18 GiB (8%)
Title : [Оригинал]
Language : English
Default : No
Forced : No

Audio #5
ID : 6
Format : AC-3
Format/Info : Audio Coding 3
Mode extension : CM (complete main)
Codec ID : A_AC3
Duration : 1h 51mn
Bit rate mode : Constant
Bit rate : 640 Kbps
Channel(s) : 6 channels
Channel positions : Front: L C R, Side: L R, LFE
Sampling rate : 48.0 KHz
Bit depth : 16 bits
Compression mode : Lossy
Stream size : 513 MiB (3%)
Title : [Описание]
Language : English
Default : No
Forced : No

Text #1
ID : 7
Format : UTF-8
Codec ID : S_TEXT/UTF8
Codec ID/Info : UTF-8 Plain Text
Title : [Forced]
Language : Russian
Default : Yes
Forced : No

Text #2
ID : 8
Format : UTF-8
Codec ID : S_TEXT/UTF8
Codec ID/Info : UTF-8 Plain Text
Title : [Blu-ray CEE]
Language : Russian
Default : No
Forced : No

Text #3
ID : 9
Format : UTF-8
Codec ID : S_TEXT/UTF8
Codec ID/Info : UTF-8 Plain Text
Title : [Full]
Language : English
Default : No
Forced : No

Text #4
ID : 10
Format : UTF-8
Codec ID : S_TEXT/UTF8
Codec ID/Info : UTF-8 Plain Text
Title : [SDH]
Language : English
Default : No
Forced : No

Text #5
ID : 11
Format : UTF-8
Codec ID : S_TEXT/UTF8
Codec ID/Info : UTF-8 Plain Text
Title : [SDH-COLORED]
Language : English
Default : No
Forced : No

Menu
00:00:00.000 : en:Chapter 1
00:08:52.991 : en:Chapter 2
00:19:26.665 : en:Chapter 3
00:29:15.754 : en:Chapter 4
00:40:50.239 : en:Chapter 5
00:51:06.730 : en:Chapter 6
00:59:55.467 : en:Chapter 7
01:10:37.150 : en:Chapter 8
01:21:03.108 : en:Chapter 9
01:28:59.292 : en:Chapter 10
01:38:10.760 : en:Chapter 11
01:46:08.362 : en:Chapter 12
pb.wtf



Скачать Заклятие через торрент http://i2.imageban.ru/out/2013/10/30/bfefcf79f5884ce4253e64e63adeb892.png Скачать фильм Заклятие через торрент бесплантно в хорошем качестве Описание: В основе картины лежит реальная история семьи Перрон, которые утверждали, что жили в окружении привидений, как добрых, так и ... 9.7 10 35
Info! Золотая раздача, скачанное не засчитывается.
Торрент: Зарегистрирован [2014-01-30 13:53] · скачан: 407 раз
Статус: √ проверено
Размер: 14.59 GB
Как cкачать? Как скачать Заклятие через торрент | qTorrent

% Раздел Тема Автор DL S | L
Ultra HD (UHD: 2K, 4K, 8K) — видео сверхвысокой чёткости [ 28.86 GB ] Заклятие / The Conjuring [2013 UHD WEBRip 2160p] DUB + 2xAVO sheker187 Скачать
1 | 0
Фильмы 2016 [DVDrip, WEB-DLRip, HDrip] (DUB, MVO) [ 691 MB ] Заклятие 2 / The Conjuring 2 [2016 HDRip PsYcho Скачать
1 | 0
Фильмы 2016 [DVDrip, WEB-DLRip, HDrip] (DUB, MVO) [ 1.46 GB ] Заклятие 2 / The Conjuring 2 [2016 BDRip] - [] Twi7ter Скачать
1 | 0
Фильмы [HD 720p, 1080p] (Хороший звук DUB, MVO) [ 14.23 GB ] Заклятие 2 / The Conjuring 2 [2016 BDRip 1080p / ] Ворон Скачать
1 | 0
Фильмы (Blu-ray, BD-Remux, HDDVD) [ 24.89 GB ] Заклятие 2 / The Conjuring 2 [2016 BDRemux 1080p от ExKinoRay] Russian Mafia Скачать
1 | 0
Фильмы (Blu-ray, BD-Remux, HDDVD) [ 36.77 GB ] Заклятие 2 / The Conjuring 2 [2016 Blu-ray CEE 1080p] DUB bober100 Скачать
1 | 1
Фильмы 2016 [DVDrip, WEB-DLRip, HDrip] (DUB, MVO) [ 2.18 GB ] Заклятие 2 / The Conjuring 2 [2016 BDRip] - [] Twi7ter Скачать
2 | 0

28-11-2019 20:33  

Отключить всю рекламу на сайте

30-10-2013 19:11 Заклятие Скачать торрент  

Забираю yespb.wtf



30-10-2013 20:24 Заклятие Скачать торрент  

Спасибо, долго ждал, 7.5 рейтинг для фильма ужасов прям огоньpb.wtf



31-12-2013 15:50 Заклятие Скачать торрент  

классный ужастик держит в напряжении!!! БЛАГОДАРЮ!!!pb.wtf



07-01-2014 15:02 Заклятие Скачать торрент  

Фильм как ужастик удался. Для лучшего эффекта смотреть на ночь, одному и в темноте.pb.wtf



30-01-2014 16:26 Заклятие Скачать торрент  

yes суперpb.wtf



    Дорогой пользователь! Огромная просьба, поблагодарите релизера, оцените раздачу и оставьте свои комментарий, если Вы скачали Заклятие через торрент бесплатно! Внесите свою лепту в развитие PiratBit!
    Комментировать посты могут только пользователи прошедшие не сложную регистрацию
    Показать сообщения:    

    Заклятие через торрент
    Скачать бесплатно Заклятие
    Заклятие скачать торрент
    Заклятие смотреть онлайн
    Cкачать фильм Заклятие бесплатно
    Заклятие скачать торрент в хорошем качестве
    Заклятие смотреть онлайн бесплатно в хорошем качестве


    Вы не можете начинать темы
    Вы не можете отвечать на сообщения
    Вы не можете редактировать свои сообщения
    Вы не можете удалять свои сообщения
    Вы не можете голосовать в опросах
    Вы не можете прикреплять файлы к сообщениям
    Вы можете скачивать файлы