Ссылка на приватное зеркало нашего сайта всего за 1$. Внимание количество ограничено!!!

2 сезон

iTunes

1 сезон

1

iTunes

iTunes

iTunes

1 сезон

RePack

30

ИГРА 18+

pack

ВАЖНО

!!Акция!!

Alien_RageХит недели

RePack

MK11
pack

Забери бонус

RePack

jed

!!Акция!!

Alien_Rage

RePack

fifa19

RePack

Assassins Creed: Odyssey

RePack

NEED FOR SPEED™ PAYBACK

4 сезон

9 сезон

Бесстыжие 9 сезон

Все сериалы

все сериалы на PB.wtf

RePack

FAR CRY 5
  

Заклятие / The Conjuring (Джеймс Ван) [2013, Ужасы, триллер, BDRip 720p] Dub |Лицензия| pb.wtf

Заклятие через торрент pb.wtf

Размер: 4.86 GB | Добавлен: 6 лет 8 мес. назад | Торрент скачан:743 раза
Скачать  

03-11-2013 19:40 Заклятие Скачать торрент  

Год выпуска: 2013
Страна: США
Жанр: Ужасы, триллер
Продолжительность: 01:51:57
Перевод: Профессиональный (полное дублирование) |Лицензия|

Режиссер: Джеймс Ван
Продюсер: Роб Кауэн, Тони ДеРоза-Грюнд, Питер Сафран
Сценарий: Чад Хэйес, Кэри Хэйес

В ролях: Вера Фармига, Патрик Уилсон, Рон Ливингстон, Лили Тейлор, Шэнли Касвелл, Хейли МакФарланд, Джои Кинг, Маккензи Фой, Кайла Дивер, Шэнон Кук-Чан

Описание: В основе картины лежит реальная история семьи Перрон, которые утверждали, что жили в окружении привидений, как добрых, так и злых. Духи населяли дом на Род-Айленде, в котором Перроны проживали в семидесятых годах XX века.

7.60 (109 100)


Качество: BDRip 720p
Формат: MKV
Видео кодек: AVC
Аудио кодек: AC3 / DTS
Видео: AVC, 1280x532 (2.40:1), 23.976 fps, 4 060 Kbps (0.249 bit/pixel)
Аудио: AC3, 48.0 KHz, 6 ch, 640 Kbps, CBR
Аудио: DTS, 48.0 KHz, 6 ch, 1 510 Kbps, CBR

Общее
Уникальный идентификатор : 178578985695972267152991665560545644736 (0x86590FC4F404B505BFD19E3AB88FD0C0)
Полное имя : D:торрентыZakljatie.BDRip.720.mkv
Формат : Matroska
Версия формата : Version 2
Размер файла : 4,86 Гбайт
Продолжительность : 1 ч. 51 м.
Общий поток : 6209 Кбит/сек
Дата кодирования : UTC 2013-10-29 22:48:28
Программа кодирования : mkvmerge v6.3.0 ('You can't stop me!') built on Jun 28 2013 20:09:41
Библиотека кодирования : libebml v1.3.0 + libmatroska v1.4.0

Видео
Идентификатор : 1
Формат : AVC
Формат/Информация : Advanced Video Codec
Профиль формата : High@L4.1
Параметр CABAC формата : Да
Параметр ReFrames формата : 10 кадров
Идентификатор кодека : V_MPEG4/ISO/AVC
Продолжительность : 1 ч. 51 м.
Битрейт : 4060 Кбит/сек
Ширина : 1280 пикселей
Высота : 532 пикселя
Соотношение сторон : 2,40:1
Режим частоты кадров : Постоянный
Частота кадров : 23,976 кадра/сек
Цветовое пространство : YUV
Субдискретизация насыщенности : 4:2:0
Битовая глубина : 8 бит
Тип развёртки : Прогрессивная
Бит/(Пиксели*Кадры) : 0.249
Размер потока : 3,08 Гбайт (63%)
Библиотека кодирования : x264 core 138 r2356 a1d3d17
Настройки программы : cabac=1 / ref=10 / deblock=1:-3:-3 / analyse=0x3:0x113 / me=umh / subme=10 / psy=1 / psy_rd=1.00:0.05 / mixed_ref=1 / me_range=32 / chroma_me=1 / trellis=2 / 8x8dct=1 / cqm=0 / deadzone=21,11 / fast_pskip=0 / chroma_qp_offset=-2 / threads=18 / lookahead_threads=1 / sliced_threads=0 / nr=0 / decimate=1 / interlaced=0 / bluray_compat=0 / constrained_intra=0 / bframes=4 / b_pyramid=2 / b_adapt=2 / b_bias=0 / direct=3 / weightb=1 / open_gop=0 / weightp=2 / keyint=250 / keyint_min=23 / scenecut=40 / intra_refresh=0 / rc=2pass / mbtree=0 / bitrate=4060 / ratetol=1.0 / qcomp=0.70 / qpmin=0 / qpmax=69 / qpstep=4 / cplxblur=20.0 / qblur=0.5 / ip_ratio=1.40 / pb_ratio=1.30 / aq=2:1.00
Язык : English
Default : Да
Forced : Нет

Аудио #1
Идентификатор : 2
Формат : AC-3
Формат/Информация : Audio Coding 3
Расширение режима : CM (complete main)
Параметр Endianness формата : Big
Идентификатор кодека : A_AC3
Продолжительность : 1 ч. 51 м.
Вид битрейта : Постоянный
Битрейт : 640 Кбит/сек
Каналы : 6 каналов
Расположение каналов : Front: L C R, Side: L R, LFE
Частота : 48,0 КГц
Битовая глубина : 16 бит
Метод сжатия : С потерями
Размер потока : 513 Мбайт (10%)
Язык : Russian
Default : Да
Forced : Нет

Аудио #2
Идентификатор : 3
Формат : DTS
Формат/Информация : Digital Theater Systems
Режим : 16
Параметр Endianness формата : Big
Идентификатор кодека : A_DTS
Продолжительность : 1 ч. 51 м.
Вид битрейта : Постоянный
Битрейт : 1509 Кбит/сек
Каналы : 6 каналов
Расположение каналов : Front: L C R, Side: L R, LFE
Частота : 48,0 КГц
Битовая глубина : 24 бит
Метод сжатия : С потерями
Размер потока : 1,18 Гбайт (24%)
Default : Нет
Forced : Нет


скриншот   скриншот   скриншот   скриншот  
pb.wtf



Скачать Заклятие через торрент http://pic.kartinco.top/images/4/x17xu.jpg Скачать фильм Заклятие через торрент бесплантно в хорошем качестве Описание: В основе картины лежит реальная история семьи Перрон, которые утверждали, что жили в окружении привидений, как добрых, так и ... 9.8 10 36
Info! Золотая раздача, скачанное не засчитывается.
Торрент: Зарегистрирован [2014-01-30 13:53] · скачан: 743 раз
Статус: √ проверено
Размер: 4.86 GB
Как cкачать? Как скачать Заклятие через торрент | qTorrent

% Раздел Тема Автор DL S | L
Фильмы 2013 [DVDrip, WEB-DLRip, HDrip] [ 1.46 GB ] Заклятие / The Conjuring [2013 биография HDRip DUB ] Ворон Скачать
2 | 0
Фильмы 2013 [DVDrip, WEB-DLRip, HDrip] [ 1.37 GB ] Заклятие / The Conjuring [2013 биография HDRip DUB ] кэп Скачать
1 | 0
Фильмы [HD 720p, 1080p] (Хороший звук DUB, MVO) [ 14.59 GB ] Заклятие / The Conjuring [2013 биография BDRip 1080p DUB] [] лисяра Скачать
1 | 0

28-11-2019 20:33  

Отключить всю рекламу на сайте

16-08-2016 03:08 Заклятие Скачать торрент  

Перевод профессиональный, дубляж? Диалоги в оригинале!pb.wtf



    Дорогой пользователь! Огромная просьба, поблагодарите релизера, оцените раздачу и оставьте свои комментарий, если Вы скачали Заклятие через торрент бесплатно! Внесите свою лепту в развитие PiratBit!
    Комментировать посты могут только пользователи прошедшие не сложную регистрацию
    Показать сообщения:    

    Заклятие через торрент
    Скачать бесплатно Заклятие
    Заклятие скачать торрент
    Заклятие смотреть онлайн
    Cкачать фильм Заклятие бесплатно
    Заклятие скачать торрент в хорошем качестве
    Заклятие смотреть онлайн бесплатно в хорошем качестве


    Вы не можете начинать темы
    Вы не можете отвечать на сообщения
    Вы не можете редактировать свои сообщения
    Вы не можете удалять свои сообщения
    Вы не можете голосовать в опросах
    Вы не можете прикреплять файлы к сообщениям
    Вы можете скачивать файлы