2 сезон

iTunes

MVO

1

2 сезон

iTunes

iTunes

1 сезон

RePack

30

Ultimate

ВАЖНО

ИГРА 18+

pack

RePack

MK11
pack

Легкие деньги

RePack

jed

RePack

fifa19

RePack

RDR2

RePack

NEED FOR SPEED™ PAYBACK

4 сезон

9 сезон

Бесстыжие 9 сезон

Все сериалы

все сериалы на PB.wtf

RePack

FAR CRY 5

Anonymous, доброй ночи, мы не успеваем собрать деньги на оплату серверов за декабрь и январь, помогите нам пожалуйста в это трудное время. В качестве благодарности мы отключим Вам всю рекламу на сайте (укажите свой ник в строку Ваше имя)!

×
  
Magnet ссылка

Иллюзия обмана / Now You See Me (Луи Летерье / Louis Leterrier) [ 2013 , Франция, США , триллер, криминал, детектив , BDRip-AVC , Дубляж , лицензия / iTunes] pb.wtf

Иллюзия обмана через торрент pb.wtf

Размер: 2.84 GB | Добавлен: 7 лет 4 мес. назад | Торрент скачан:1148 раз
Скачать  

30-08-2013 22:01 Иллюзия обмана Скачать торрент  

Иллюзия обмана / Now You See Me
  • Год выпуска: 2013
  • Страна: Франция, США
  • Жанр: триллер, криминал, детектив
  • Продолжительность: 01:55:21
  • Перевод: Дубляж [Лицензия / iTunes]
  • Субтитры: Английские
  • Режиссер: Луи Летерье / Louis Leterrier
  • В ролях: Марк Руффало (Dylan Rhodes), Джесси Айзенберг (J. Daniel Atlas), Вуди Харрельсон (Merritt McKinney), Айла Фишер (Henley Reeves), Дэйв Франко (Jack Wilder), Морган Фриман (Thaddeus Bradley), Мелани Лоран (Alma Dray), Майкл Кейн (Arthur Tressler), Майкл Келли (Agent Fuller), Коммон (Evans), Дэвид Уоршофски (Cowan), Хосе Гарсия (Etienne Forcier)
  • Описание: Команда лучших иллюзионистов мира проворачивает дерзкие ограбления прямо во время своих шоу, играя в кошки-мышки с агентами ФБР.
  • Рейтинг
    kinopoisk.ru: 7.972 (51 635)
    imdb.com: 7.30 (101 576)
    MPAA: PG-13 - Детям до 13 лет просмотр не желателен
  • Качество: BDRip-AVC
  • Формат: MKV
  • Видео кодек: AVC
  • Аудио кодек: AC3
  • Видео: AVC, 1024x426 (2.40:1), 2700 kbps, 23,976 fps, 0,258 bpp
  • Аудио №1: Русский / AC3 / 5.1 / 48 kHz / 384 kbps / 16 bit ||
  • Аудио №2: Английский / AC3 / 5.1 / 48 kHz / 448 kbps / 16 bit

    D:Illyuziya.obmana.2013.BDRip.(AVC)-MediaClub.mkv
    General
    Unique ID : 223570826844862812140897477468835485539 (0xA8322CCD88988129A7744ED5E80B1763)
    Complete name : D:Illyuziya.obmana.2013.BDRip.(AVC)-MediaClub.mkv
    Format : Matroska
    Format version : Version 4 / Version 2
    File size : 2.84 GiB
    Duration : 1h 55mn
    Overall bit rate : 3 530 Kbps
    Movie name : -=MediaClub-kaspr=-
    Encoded date : UTC 2013-08-30 13:24:34
    Writing application : mkvmerge v6.3.0 ('You can't stop me!') built on Jul 19 2013 16:27:38
    Writing library : libebml v1.3.0 + libmatroska v1.4.1
    Video #1
    ID : 1
    Format : AVC
    Format/Info : Advanced Video Codec
    Format profile : High@L4.1
    Format settings, CABAC : Yes
    Format settings, ReFrames : 9 frames
    Codec ID : V_MPEG4/ISO/AVC
    Duration : 1h 55mn
    Bit rate : 2 700 Kbps
    Width : 1 024 pixels
    Height : 426 pixels
    Display aspect ratio : 2.40:1
    Frame rate : 23.976 fps
    Color space : YUV
    Chroma subsampling : 4:2:0
    Bit depth : 8 bits
    Scan type : Progressive
    Bits/(Pixel*Frame) : 0.258
    Stream size : 2.12 GiB (74%)
    Title : -=MediaClub-kaspr=-
    Writing library : x264 core 130 r2273 b3065e6
    Encoding settings : cabac=1 / ref=9 / deblock=1:-3:-3 / analyse=0x3:0x133 / me=umh / subme=11 / psy=1 / psy_rd=1.00:0.20 / mixed_ref=1 / me_range=48 / chroma_me=1 / trellis=2 / 8x8dct=1 / cqm=0 / deadzone=21,11 / fast_pskip=0 / chroma_qp_offset=-3 / threads=12 / lookahead_threads=3 / sliced_threads=0 / nr=0 / decimate=0 / interlaced=0 / bluray_compat=0 / constrained_intra=0 / bframes=10 / b_pyramid=2 / b_adapt=2 / b_bias=0 / direct=3 / weightb=1 / open_gop=0 / weightp=2 / keyint=240 / keyint_min=23 / scenecut=40 / intra_refresh=0 / rc=2pass / mbtree=0 / bitrate=2700 / ratetol=1.0 / qcomp=0.60 / qpmin=0 / qpmax=69 / qpstep=4 / cplxblur=20.0 / qblur=0.5 / ip_ratio=1.40 / pb_ratio=1.30 / aq=1:1.00
    Default : Yes
    Forced : No
    Audio #2
    ID : 2
    Format : AC-3
    Format/Info : Audio Coding 3
    Mode extension : CM (complete main)
    Format settings, Endianness : Big
    Codec ID : A_AC3
    Duration : 1h 55mn
    Bit rate mode : Constant
    Bit rate : 384 Kbps
    Channel(s) : 6 channels
    Channel positions : Front: L C R, Side: L R, LFE
    Sampling rate : 48.0 KHz
    Bit depth : 16 bits
    Compression mode : Lossy
    Stream size : 317 MiB (11%)
    Title : Dub (iTunes)
    Language : Russian
    Default : Yes
    Forced : Yes
    Audio #3
    ID : 3
    Format : AC-3
    Format/Info : Audio Coding 3
    Mode extension : CM (complete main)
    Format settings, Endianness : Big
    Codec ID : A_AC3
    Duration : 1h 55mn
    Bit rate mode : Constant
    Bit rate : 448 Kbps
    Channel(s) : 6 channels
    Channel positions : Front: L C R, Side: L R, LFE
    Sampling rate : 48.0 KHz
    Bit depth : 16 bits
    Compression mode : Lossy
    Stream size : 370 MiB (13%)
    Language : English
    Default : No
    Forced : No
    Text #4
    ID : 4
    Format : UTF-8
    Codec ID : S_TEXT/UTF8
    Codec ID/Info : UTF-8 Plain Text
    Language : English
    Default : No
    Forced : No
    pb.wtf



  • Скачать Иллюзия обмана через торрент http://i6.imageban.ru/out/2013/08/31/23fbb43a36867c7b7533076ab42a67c9.png Скачать фильм Иллюзия обмана через торрент бесплантно в хорошем качестве Описание: Команда лучших иллюзионистов мира проворачивает дерзкие ограбления прямо во время своих шоу, играя в кошки-мышки с агентами ... 9.9 10 15
    Info! Золотая раздача, скачанное не засчитывается.
    Торрент: Зарегистрирован [2013-08-30 22:01] · скачан: 1 148 раз
    Статус: √ проверено
    Размер: 2.84 GB
    Как cкачать? Как скачать Иллюзия обмана через торрент | UTorrent

    % Раздел Тема Автор DL S | L
    Фильмы (HD 720p, 1080p) (48-60 fps) [ 4.73 GB ] Иллюзия обмана 2 / Now You See Me 2 [2016 BDRip 720p / 60 FPS ] от R.G. HD-Films slaventi-69 Скачать
    3 | 0
    Фильмы (HD 720p, 1080p) (48-60 fps) [ 4.47 GB ] Иллюзия обмана / Now You See Me [2013 BDRip 720p / 60 FPS + AVO] от R.G. HD-Films slaventi-69 Скачать
    3 | 0
    Официальные cаундтреки к зарубежным фильмам [ 233 MB ] Иллюзия обмана 2 / Now You See Me 2 2016 / MP3 / 192 kbps / SoundtrackScore BomjJamesBomj Скачать
    1 | 0
    Фильмы [HD 720p, 1080p] (Хороший звук DUB, MVO) [ 8.98 GB ] Иллюзия обмана / Now You See Me [2013 BDRip 1080p HEVC ] [Extended Edition] Мичман37 Скачать
    1 | 0
    Ultra HD (UHD: 2K, 4K, 8K) — видео сверхвысокой чёткости [ 57.65 GB ] Иллюзия обмана / Now You See Me [2013 UHD BDRemux 2160p] - [] sheker187 Скачать
    1 | 0
    Ultra HD (UHD: 2K, 4K, 8K) — видео сверхвысокой чёткости [ 57.67 GB ] Иллюзия обмана 2 / Now You See Me 2 [2016 UHD BDRemux 2160p] DUB [] bober100 Скачать
    1 | 0
    Фильмы с авторской озвучкой [ 1.47 GB ] Иллюзия обмана 2 / Now You See Me 2 [2016 BDRip] [AVO] killermax2013 Скачать
    1 | 0

    28-11-2019 20:33  

    Отключить всю рекламу на сайте

      Дорогой пользователь! Огромная просьба, поблагодарите релизера, оцените раздачу и оставьте свои комментарий, если Вы скачали Иллюзия обмана через торрент бесплатно! Внесите свою лепту в развитие PiratBit!
      Комментировать посты могут только пользователи прошедшие не сложную регистрацию
      Показать сообщения:    

      Иллюзия обмана через торрент
      Скачать бесплатно Иллюзия обмана
      Иллюзия обмана скачать торрент
      Иллюзия обмана смотреть онлайн
      Cкачать фильм Иллюзия обмана бесплатно
      Иллюзия обмана скачать торрент в хорошем качестве
      Иллюзия обмана смотреть онлайн бесплатно в хорошем качестве


      Вы не можете начинать темы
      Вы не можете отвечать на сообщения
      Вы не можете редактировать свои сообщения
      Вы не можете удалять свои сообщения
      Вы не можете голосовать в опросах
      Вы не можете прикреплять файлы к сообщениям
      Вы можете скачивать файлы