Ссылка на приватное зеркало нашего сайта всего за 1$. Внимание количество ограничено!!!

2 сезон

iTunes

1 сезон

1

iTunes

iTunes

iTunes

1 сезон

RePack

30

ИГРА 18+

pack

ВАЖНО

!!Акция!!

Alien_RageХит недели

RePack

MK11
pack

Забери бонус

RePack

jed

!!Акция!!

Alien_Rage

RePack

fifa19

RePack

Assassins Creed: Odyssey

RePack

NEED FOR SPEED™ PAYBACK

4 сезон

9 сезон

Бесстыжие 9 сезон

Все сериалы

все сериалы на PB.wtf

RePack

FAR CRY 5
  

Иллюзия обмана / Now You See Me (Луи Летерье / Louis Leterrier) [2013, триллер, криминал, детектив, BDRip 1080p, DUB] [Лицензия] [Театральная версия / Theatrical Cut] pb.wtf

Иллюзия обмана через торрент pb.wtf

Размер: 12.93 GB | Добавлен: 7 лет 1 мес. назад | Торрент скачан:891 раз
Скачать  

15-09-2013 14:28 Иллюзия обмана Скачать торрент  

Иллюзия обмана / Now You See Me

Год выпуска : 2013
Страна: Франция, США
Жанр: Триллер, криминал, детектив

Продолжительность: 01:55:21
Перевод: Профессиональный (полное дублирование) [Лизензия]

Субтитры: Английские (вшитые отключаемые)
Режиссер: Луи Летерье / Louis Leterrier
В ролях: Марк Руффало (Dylan Rhodes), Джесси Айзенберг (J. Daniel Atlas), Вуди Харрельсон (Merritt McKinney), Айла Фишер (Henley Reeves), Дэйв Франко (Jack Wilder), Морган Фриман (Thaddeus Bradley), Мелани Лоран (Alma Dray), Майкл Кейн (Arthur Tressler), Майкл Келли (Agent Fuller), Коммон (Evans), Дэвид Уоршофски (Cowan), Хосе Гарсия (Etienne Forcier)
Описание: Команда лучших иллюзионистов мира проворачивает дерзкие ограбления прямо во время своих шоу, играя в кошки-мышки с агентами ФБР.
Рейтинг

imdb.com: 7.30 (98 573)
MPAA: PG-13 - Детям до 13 лет просмотр не желателен
Качество: BDRip 1080p
Формат: MKV
Видео кодек: AVC
Аудио кодек: AC3/DTS
Видео: AVC, 1920x800 (2.40:1), 12124 kbps, 23,976 fps
Аудио №1: русский / DTS / 5.1 / 48 kHz / 1510 kbps / 16 bit Дубляж
Аудио №2: русский / AC3 / 5.1 / 48 kHz / 448 kbps / 16 bit Дубляж
Аудио №3: английский / DTS / 5.1 / 48 kHz / 1510 kbps / 24 bit
Аудио №4: английский / AC3 / 2.0 / 48 kHz / 224 kbps / 16 bit Descriptive
Аудио №5: английский / AC3 / 2.0 / 48 kHz / 224 kbps / 16 bit Commentary

Сохранены оригинальные чаптеры как на Blu-Ray


General
Unique ID : 243598098185486482743631619126491418077 (0xB7434983EA5F49C49B2AD8938E590DDD)
Complete name : I:Now.You.See.Me.2013.Theatrical.Cut.1080p.BluRay.Rus.3xEng.mkv
Format : Matroska
Format version : Version 2
File size : 12.9 GiB
Duration : 1h 55mn
Overall bit rate : 16.0 Mbps
Movie name : Now You See Me (2013)
Encoded date : UTC 2013-09-13 19:06:08
Writing application : mkvmerge v6.3.0 ('You can't stop me!') built on Jun 28 2013 20:09:41
Writing library : libebml v1.3.0 + libmatroska v1.4.0

Video
ID : 1
Format : AVC
Format/Info : Advanced Video Codec
Format profile : High@L4.1
Format settings, CABAC : Yes
Format settings, ReFrames : 4 frames
Codec ID : V_MPEG4/ISO/AVC
Duration : 1h 55mn
Bit rate : 12.1 Mbps
Width : 1 920 pixels
Height : 800 pixels
Display aspect ratio : 2.40:1
Frame rate : 23.976 fps
Color space : YUV
Chroma subsampling : 4:2:0
Bit depth : 8 bits
Scan type : Progressive
Bits/(Pixel*Frame) : 0.329
Stream size : 9.51 GiB (74%)
Writing library : x264 core 133 r2334 a3ac64b
Encoding settings : cabac=1 / ref=5 / deblock=1:-3:-3 / analyse=0x3:0x133 / me=umh / subme=11 / psy=1 / psy_rd=1.00:0.15 / mixed_ref=1 / me_range=32 / chroma_me=1 / trellis=2 / 8x8dct=1 / cqm=0 / deadzone=21,11 / fast_pskip=0 / chroma_qp_offset=-3 / threads=12 / lookahead_threads=2 / sliced_threads=0 / nr=0 / decimate=1 / interlaced=0 / bluray_compat=0 / constrained_intra=0 / bframes=7 / b_pyramid=1 / b_adapt=2 / b_bias=0 / direct=3 / weightb=1 / open_gop=0 / weightp=2 / keyint=240 / keyint_min=23 / scenecut=40 / intra_refresh=0 / rc_lookahead=40 / rc=2pass / mbtree=1 / bitrate=12124 / ratetol=1.0 / qcomp=0.60 / qpmin=0 / qpmax=69 / qpstep=4 / cplxblur=20.0 / qblur=0.5 / vbv_maxrate=62500 / vbv_bufsize=78125 / nal_hrd=none / ip_ratio=1.40 / aq=1:1.00
Language : English
Default : Yes
Forced : No

Audio #1
ID : 2
Format : DTS
Format/Info : Digital Theater Systems
Codec ID : A_DTS
Duration : 1h 55mn
Bit rate mode : Constant
Bit rate : 1 510 Kbps
Channel(s) : 6 channels
Channel positions : Front: L C R, Side: L R, LFE
Sampling rate : 48.0 KHz
Bit depth : 16 bits
Compression mode : Lossy
Stream size : 1.22 GiB (9%)
Language : Russian
Default : Yes
Forced : No

Audio #2
ID : 3
Format : AC-3
Format/Info : Audio Coding 3
Mode extension : CM (complete main)
Codec ID : A_AC3
Duration : 1h 55mn
Bit rate mode : Constant
Bit rate : 448 Kbps
Channel(s) : 6 channels
Channel positions : Front: L C R, Side: L R, LFE
Sampling rate : 48.0 KHz
Bit depth : 16 bits
Compression mode : Lossy
Stream size : 370 MiB (3%)
Language : Russian
Default : No
Forced : No

Audio #3
ID : 4
Format : DTS
Format/Info : Digital Theater Systems
Codec ID : A_DTS
Duration : 1h 55mn
Bit rate mode : Constant
Bit rate : 1 510 Kbps
Channel(s) : 6 channels
Channel positions : Front: L C R, Side: L R, LFE
Sampling rate : 48.0 KHz
Bit depth : 24 bits
Compression mode : Lossy
Stream size : 1.22 GiB (9%)
Language : English
Default : No
Forced : No

Audio #4
ID : 5
Format : AC-3
Format/Info : Audio Coding 3
Format profile : Dolby Digital
Mode extension : CM (complete main)
Codec ID : A_AC3
Duration : 1h 55mn
Bit rate mode : Constant
Bit rate : 224 Kbps
Channel(s) : 2 channels
Channel positions : Front: L R
Sampling rate : 48.0 KHz
Bit depth : 16 bits
Compression mode : Lossy
Stream size : 185 MiB (1%)
Title : AC3 2.0 @ 192 kbps - Descriptive
Language : English
Default : No
Forced : No

Audio #5
ID : 6
Format : AC-3
Format/Info : Audio Coding 3
Format profile : Dolby Digital
Mode extension : CM (complete main)
Codec ID : A_AC3
Duration : 1h 55mn
Bit rate mode : Constant
Bit rate : 224 Kbps
Channel(s) : 2 channels
Channel positions : Front: L R
Sampling rate : 48.0 KHz
Bit depth : 16 bits
Compression mode : Lossy
Stream size : 185 MiB (1%)
Title : AC3 2.0 @ 192 kbps - Commentary
Language : English
Default : No
Forced : No

Text #1
ID : 7
Format : UTF-8
Codec ID : S_TEXT/UTF8
Codec ID/Info : UTF-8 Plain Text
Language : English
Default : No
Forced : No

Text #2
ID : 8
Format : UTF-8
Codec ID : S_TEXT/UTF8
Codec ID/Info : UTF-8 Plain Text
Title : SDH
Language : English
Default : No
Forced : No

Menu
00:00:00.000 : en:00:00:00.000
00:07:41.795 : en:00:07:41.795
00:13:34.272 : en:00:13:34.272
00:20:17.466 : en:00:20:17.466
00:30:13.145 : en:00:30:13.145
00:37:35.169 : en:00:37:35.169
00:44:45.725 : en:00:44:45.725
00:51:15.906 : en:00:51:15.906
00:58:56.908 : en:00:58:56.908
01:04:31.909 : en:01:04:31.909
01:13:21.939 : en:01:13:21.939
01:20:44.131 : en:01:20:44.131
01:27:06.054 : en:01:27:06.054
01:35:46.449 : en:01:35:46.449
01:41:00.179 : en:01:41:00.179
01:45:47.507 : en:01:45:47.507
pb.wtf



Скачать Иллюзия обмана через торрент http://i1.imageban.ru/out/2013/08/30/d95a6fc38a856e9fb88785db476c2f80.png Скачать фильм Иллюзия обмана через торрент бесплантно в хорошем качестве Описание: Команда лучших иллюзионистов мира проворачивает дерзкие ограбления прямо во время своих шоу, играя в кошки-мышки с агентами ... 10 10 17
Info! Золотая раздача, скачанное не засчитывается.
Торрент: Зарегистрирован [2013-09-15 14:28] · скачан: 891 раз
Статус: √ проверено
Размер: 12.93 GB
Как cкачать? Как скачать Иллюзия обмана через торрент | qTorrent

% Раздел Тема Автор DL S | L
Официальные cаундтреки к зарубежным фильмам [ 233 MB ] Иллюзия обмана 2 / Now You See Me 2 2016 / MP3 / 192 kbps / SoundtrackScore BomjJamesBomj Скачать
1 | 0
Фильмы [HD 720p, 1080p] (Хороший звук DUB, MVO) [ 8.98 GB ] Иллюзия обмана / Now You See Me [2013 BDRip 1080p HEVC ] [Extended Edition] Мичман37 Скачать
1 | 0
Ultra HD (UHD: 2K, 4K, 8K) — видео сверхвысокой чёткости [ 57.65 GB ] Иллюзия обмана / Now You See Me [2013 UHD BDRemux 2160p] - [] sheker187 Скачать
1 | 0
Ultra HD (UHD: 2K, 4K, 8K) — видео сверхвысокой чёткости [ 57.67 GB ] Иллюзия обмана 2 / Now You See Me 2 [2016 UHD BDRemux 2160p] DUB [] bober100 Скачать
1 | 0
Фильмы с авторской озвучкой [ 1.47 GB ] Иллюзия обмана 2 / Now You See Me 2 [2016 BDRip] [AVO] killermax2013 Скачать
1 | 0
Фильмы (DVD фильмы) [ 7.53 GB ] Иллюзия обмана 2 / Now You See Me 2 [2016 DVD9] R5 voovaz Скачать
1 | 0
Фильмы 2016 [DVDrip, WEB-DLRip, HDrip] (DUB, MVO) [ 2.18 GB ] Иллюзия обмана 2 / Now You See Me 2 [2016 HDRip ] coc900 Скачать
4 | 0

28-11-2019 20:33  

Отключить всю рекламу на сайте

    Дорогой пользователь! Огромная просьба, поблагодарите релизера, оцените раздачу и оставьте свои комментарий, если Вы скачали Иллюзия обмана через торрент бесплатно! Внесите свою лепту в развитие PiratBit!
    Комментировать посты могут только пользователи прошедшие не сложную регистрацию
    Показать сообщения:    

    Иллюзия обмана через торрент
    Скачать бесплатно Иллюзия обмана
    Иллюзия обмана скачать торрент
    Иллюзия обмана смотреть онлайн
    Cкачать фильм Иллюзия обмана бесплатно
    Иллюзия обмана скачать торрент в хорошем качестве
    Иллюзия обмана смотреть онлайн бесплатно в хорошем качестве


    Вы не можете начинать темы
    Вы не можете отвечать на сообщения
    Вы не можете редактировать свои сообщения
    Вы не можете удалять свои сообщения
    Вы не можете голосовать в опросах
    Вы не можете прикреплять файлы к сообщениям
    Вы можете скачивать файлы