1 сезон

3 сезон

iTunes

1

iTunes

MVO

iTunes

13

1 сезон

RePack

30

Deluxe

pack

Лицензия

ВАЖНО

ИГРА 18+

pack

RePack

MK11

RePack

jed

RePack

fifa19

RePack

RDR2

RePack

NEED FOR SPEED™ PAYBACK

4 сезон

9 сезон

Бесстыжие 9 сезон

Все сериалы

все сериалы на PB.wtf

RePack

FAR CRY 5

Anonymous, добрый вечер, мы катастрофически не успеваем собрать деньги на оплату серверов, помогите нам пожалуйста 5,10,15р., для нас важна любая помощь . В качестве благодарности мы отключим Вам всю рекламу на сайте (укажите свой ник в строку Ваше имя)!

×
  
Magnet ссылка

Иллюзия обмана / Now You See Me (Луи Летерье / Louis Leterrier) [2013, триллер, криминал, детектив, DVD5] R5 pb.wtf

Иллюзия обмана через торрент pb.wtf

Размер: 4.26 GB | Добавлен: 7 лет 9 мес. назад | Торрент скачан:256 раз
Скачать  

08-10-2013 19:45 Иллюзия обмана Скачать торрент  


Иллюзия обмана / Now You See Me
«Чем вы ближе, тем меньше вы видите»
Страна: Франция, США
Студия: Kurtzman Orci Paper Products, Second Line Stages, See Me Louisiana, SOIXAN7E QUIN5E, Summit Entertainment
Жанр: триллер, криминал, детектив
Год выпуска: 2013
Мировая премьера: 21 мая 2013
Российская премьера: 12 июня 2013
Украинская премьера: 12 июня 2013
Дата выхода DVD: 17 сентября 2013
Дата выхода Blu-Ray: 17 сентября 2013
Продолжительность: 01:50:37
Перевод: Профессиональный (дублированный) [Лицензия]
Cубтитры: украинские
Оригинальная аудиодорожка: нет
Режиссер: Луи Летерье / Louis Leterrier
В ролях: Марк Руффало, Джесси Айзенберг, Вуди Харрельсон, Айла Фишер, Дэйв Франко, Мелани Лоран, Морган Фриман, Майкл Кейн, Майкл Келли, Коммон
Описание: Команда лучших иллюзионистов мира проворачивает дерзкие ограбления прямо во время своих шоу, играя в кошки-мышки с агентами ФБР.
Бонусы: нет

Качество: DVD5 R5
Формат: DVD-Video
Видео кодек: MPEG2
Аудио кодек: AC3
Видео: PAL 16:9 (720x576(0.519)) MPEG Video, 25,000 кадр/сек, 5383 Кбит/сек
Аудио: Russian (Dolby AC3, 6 ch) 256 Кбит/сек, 48,0 КГц



Title: Illjuzija.obmana.2013.DVD5
Size: 4.26 Gb ( 4 463 478,00 KBytes ) - DVD-5
Enabled regions: 1, 2, 3, 4, 5, 6, 7, 8

VTS_01 :
Play Length: 00:00:19
Video: PAL 4:3 (720x576) VBR
Audio:
Not specified (Dolby AC3, 2 ch)

VTS_02 :
Play Length: 00:00:15
Video: PAL 16:9 (720x576) VBR, Auto Letterboxed
Audio:
Not specified (Dolby AC3, 2 ch)

VTS_03 :
Play Length: 01:50:37
Video: PAL 16:9 (720x576) VBR, Auto Letterboxed
Audio:
Not specified, AC3, 3/2 (L,C,R,SL,SR)+LFE ch, 256 kbps, Delay 0 mSec

Subtitles:
Ukrainian

* Menus Information *

VIDEO_TS Menu
Video:
NTSC 4:3 (720x480) VBR
Auto Pan&Scan, Auto Letterboxed
Russian Language Unit :
Title Menu

VTS_01 Menu
Video:
PAL 16:9 (720x576) VBR
Auto Letterboxed
Audio:
Not specified (Dolby AC3, 6 ch)
Russian Language Unit :
Root Menu

VTS_02 Menu
Video:
PAL 4:3 (720x576) VBR
Russian Language Unit :
Root Menu

VTS_03 Menu
Video:
PAL 4:3 (720x576) VBR
Russian Language Unit :
Root Menu
Общее
Полное имя : F:Новинки 2013Illjuzija.obmana.2013.DVD5VIDEO_TSVTS_03_1.VOB
Формат : MPEG-PS
Размер файла : 1024 Мбайт
Продолжительность : 24 м.
Режим общего битрейта : Переменный
Общий поток : 5753 Кбит/сек

Видео
Идентификатор : 224 (0xE0)
Формат : MPEG Video
Версия формата : Version 2
Профиль формата : Main@Main
Параметр BVOP формата : Да
Параметр матрицы формата : Выборочная
Параметр GOP формата : M=3, N=15
Продолжительность : 24 м.
Вид битрейта : Переменный
Битрейт : 5383 Кбит/сек
Максимальный битрейт : 9000 Кбит/сек
Ширина : 720 пикселей
Высота : 576 пикселей
Соотношение сторон : 16:9
Частота кадров : 25,000 кадров/сек
Стандарт вещания : PAL
Цветовое пространство : YUV
Субдискретизация насыщенности : 4:2:0
Битовая глубина : 8 бит
Тип развёртки : Чересстрочная
Порядок развёртки : Верхнее поле первое
Метод сжатия : С потерями
Бит/(Пиксели*Кадры) : 0.519
Временной код первого кадра : 00:00:00:00
Оригинал временного кода : Group of pictures header
Размер потока : 958 Мбайт (94%)

Аудио
Идентификатор : 189 (0xBD)-128 (0x80)
Формат : AC-3
Формат/Информация : Audio Coding 3
Расширение режима : CM (complete main)
Параметр Endianness формата : Big
Режим смешивания : DVD-Video
Продолжительность : 24 м.
Вид битрейта : Постоянный
Битрейт : 256 Кбит/сек
Каналы : 6 каналов
Расположение каналов : Front: L C R, Side: L R, LFE
Частота : 48,0 КГц
Битовая глубина : 16 бит
Метод сжатия : С потерями
Размер потока : 45,6 Мбайт (4%)

Текст
Идентификатор : 189 (0xBD)-32 (0x20)
Формат : RLE
Формат/Информация : Run-length encoding
Режим смешивания : DVD-Video










pb.wtf



Скачать Иллюзия обмана через торрент http://i60.fastpic.ru/big/2013/1008/fa/85da4c4cc5a099fd7f99d588824279fa.jpg Скачать фильм Иллюзия обмана через торрент бесплантно в хорошем качестве Описание: Команда лучших иллюзионистов мира проворачивает дерзкие ограбления прямо во время своих шоу, играя в кошки-мышки с агентами ... 9.4 10 19
Info! Золотая раздача, скачанное не засчитывается.
Торрент: Зарегистрирован [2013-10-08 19:45] · скачан: 256 раз
Статус: √ проверено
Размер: 4.26 GB
Как cкачать? Как скачать Иллюзия обмана через торрент | UTorrent

% Раздел Тема Автор DL S | L
Фильмы (HD 720p, 1080p) (48-60 fps) [ 4.73 GB ] Иллюзия обмана 2 / Now You See Me 2 [2016 BDRip 720p / 60 FPS ] от R.G. HD-Films slaventi-69 Скачать
3 | 0
Фильмы (HD 720p, 1080p) (48-60 fps) [ 4.47 GB ] Иллюзия обмана / Now You See Me [2013 BDRip 720p / 60 FPS + AVO] от R.G. HD-Films slaventi-69 Скачать
9 | 0
Фильмы (DVD фильмы) [ 7.53 GB ] Иллюзия обмана 2 / Now You See Me 2 [2016 DVD9] R5 voovaz Скачать
1 | 0
R.G. Resident & PiratVoice - Фильмы, Видео [ 3.27 GB ] Иллюзия обмана 2 / Now You See Me 2 [2016 BDRip-AVC - [] / US Transfer] R.G.Resident schultz Скачать
2 | 0
R.G. Resident & PiratVoice - Фильмы, Видео [ 1.34 GB ] Дилогия : Иллюзия обмана / Dilogy: Now You See Me [2013-2016 HDRip - []] - R.G.Resident MeMoRiSe Скачать
1 | 0
R.G. Resident & PiratVoice - Фильмы, Видео [ 3.01 GB ] Иллюзия обмана 2 / Now You See Me 2 [2016 BDRip-AVC] DUB RUS Transfer] R.G.Resident schultz Скачать
1 | 0

28-11-2019 20:33  

Отключить всю рекламу на сайте

    Дорогой пользователь! Огромная просьба, поблагодарите релизера, оцените раздачу и оставьте свои комментарий, если Вы скачали Иллюзия обмана через торрент бесплатно! Внесите свою лепту в развитие PiratBit!
    Комментировать посты могут только пользователи прошедшие не сложную регистрацию
    Показать сообщения:    

    Иллюзия обмана через торрент
    Скачать бесплатно Иллюзия обмана
    Иллюзия обмана скачать торрент
    Иллюзия обмана смотреть онлайн
    Cкачать фильм Иллюзия обмана бесплатно
    Иллюзия обмана скачать торрент в хорошем качестве
    Иллюзия обмана смотреть онлайн бесплатно в хорошем качестве


    Вы не можете начинать темы
    Вы не можете отвечать на сообщения
    Вы не можете редактировать свои сообщения
    Вы не можете удалять свои сообщения
    Вы не можете голосовать в опросах
    Вы не можете прикреплять файлы к сообщениям
    Вы можете скачивать файлы