Ссылка на приватное зеркало нашего сайта всего за 1$. Внимание количество ограничено!!!

2 сезон

iTunes

1 сезон

1

2 сезон

2 сезон

iTunes

1 сезон

RePack

30

Ultimate

ВАЖНО

ИГРА 18+

pack

RePack

MK11
pack

Забери бонус

RePack

jed

!!Акция!!

Alien_Rage

RePack

fifa19

RePack

Assassins Creed: Odyssey

RePack

NEED FOR SPEED™ PAYBACK

4 сезон

9 сезон

Бесстыжие 9 сезон

Все сериалы

все сериалы на PB.wtf

RePack

FAR CRY 5
  

Кадры / The Internship (Шон Леви) [2013 г., комедия, HDRip, Дубляж, Лизензия] [UNRATED] pb.wtf

Кадры через торрент pb.wtf

Размер: 2.05 GB | Добавлен: 7 лет 1 мес. назад | Торрент скачан:2144 раза
Скачать  

10-10-2013 13:50 Кадры Скачать торрент  

Кадры / The Internship [UNRATED]
Год выпуска: 2013
Страна: США
Жанр: комедия,
Продолжительность: 02:05:01
Перевод: Дубляж, Лизензия

Режиссер: Шон Леви

В ролях: Винс Вон, Оуэн Уилсон, Роуз Бирн, Макс Мингелла, Аасиф Мандви, Джош Бренер, Дилан О’Брайэн, Тия Сиркар, Тобит Рафаэль, Джош Гад,

Описание: Билли и Ник всю жизнь занимаются продажами. Но новый компьютерный мир рушит их карьеру. Стараясь доказать, что они не отстали от жизни, они бросают вызов судьбе, получив желанную стажировку в компании Google вместе с командой лучших студентов колледжей. Но получить доступ в этот фантастический мир — это только половина дела. Сейчас им придется выдержать конкуренцию с самыми лучшими техническими гениями, чтобы доказать, что необходимость — это мать обновления.

Доп. информация: Примечание: UNRATED версия длиннее театральной на ~ 7 мин. Полный перевод!

Качество: HDRip
Формат: AVI
Видео кодек: XviD
Аудио кодек: AC3
Видео: 720x304 (2.37:1), 23.976 fps, XviD build 50 ~1894 kbps avg, 0.36 bit/pixel
Аудио: 48 kHz, AC3 Dolby Digital, 3/2 (L,C,R,l,r) + LFE ch, ~448 kbps

Общее
Полное имя : D:СкаченныеСкаченныеThe.Internship.2013.D.HDRip.2100Mb.UNRATED.avi
Формат : AVI
Формат/Информация : Audio Video Interleave
Профиль формата : OpenDML
Размер файла : 2,05 Гбайт
Продолжительность : 2 ч. 5 м.
Общий поток : 2349 Кбит/сек
Программа кодирования : VirtualDubMod 1.5.10.2 (build 2540/release)
Библиотека кодирования : VirtualDubMod build 2540/release

Видео
Идентификатор : 0
Формат : MPEG-4 Visual
Профиль формата : Advanced Simple@L5
Параметр BVOP формата : 2
Параметр QPel формата : Нет
Параметр GMC формата : Без точки перехода
Параметр матрицы формата : Выборочная
Идентификатор кодека : XVID
Идентификатор кодека/Подсказка : XviD
Продолжительность : 2 ч. 5 м.
Битрейт : 1889 Кбит/сек
Ширина : 720 пикселей
Высота : 304 пикселя
Соотношение сторон : 2,35:1
Частота кадров : 23,976 кадра/сек
Цветовое пространство : YUV
Субдискретизация насыщенности : 4:2:0
Битовая глубина : 8 бит
Тип развёртки : Прогрессивная
Метод сжатия : С потерями
Бит/(Пиксели*Кадры) : 0.360
Размер потока : 1,65 Гбайт (80%)
Библиотека кодирования : XviD 1.2.1 (UTC 2008-12-04)

Аудио
Идентификатор : 1
Формат : AC-3
Формат/Информация : Audio Coding 3
Расширение режима : CM (complete main)
Параметр Endianness формата : Big
Идентификатор кодека : 2000
Продолжительность : 2 ч. 5 м.
Вид битрейта : Постоянный
Битрейт : 448 Кбит/сек
Каналы : 6 каналов
Расположение каналов : Front: L C R, Side: L R, LFE
Частота : 48,0 КГц
Битовая глубина : 16 бит
Метод сжатия : С потерями
Размер потока : 401 Мбайт (19%)
Выравнивание : Разделение по промежуткам
Продолжительность промежутка : 42 мс. (1,00 видеокадр)
Время предзагрузки промежутка : 500 мс.

pb.wtf



Скачать Кадры через торрент http://pic.kartinco.top/images/4/t6a3u.jpg Скачать фильм Кадры через торрент бесплантно в хорошем качестве Описание: Билли и Ник всю жизнь занимаются продажами. Но новый компьютерный мир рушит их карьеру. Стараясь доказать, что они не отстали от ... 9.9 10 39
Info! Золотая раздача, скачанное не засчитывается.
Торрент: Зарегистрирован [2013-10-10 13:50] · скачан: 2 144 раз
Статус: √ проверено
Размер: 2.05 GB
Как cкачать? Как скачать Кадры через торрент | qTorrent

% Раздел Тема Автор DL S | L
Фильмы 2013 [DVDrip, WEB-DLRip, HDrip] [ 1.46 GB ] Кадры / The Internship [2013 BDRip-AVC ] [Расширенная версия] potroks Скачать
1 | 0
Фильмы 2013 [DVDrip, WEB-DLRip, HDrip] [ 1.37 GB ] Кадры / The Internship [UNRATED] [2013 HDRip ] MihailHD Скачать
1 | 0
Фильмы (DVD фильмы) [ 7.69 GB ] Кадры / The Internship [2013 DVD9] [] R5 voovaz Скачать
1 | 0
Фильмы 2013 [DVDrip, WEB-DLRip, HDrip] [ 2.19 GB ] Кадры / The Internship [2013 BDRip-AVC ] [Театральная версия] potroks Скачать
2 | 0
Фильмы 2013 [DVDrip, WEB-DLRip, HDrip] [ 746 MB ] Кадры / The Internship [2013 BDRip-AVC] [Расширенная версия / Unrated Cut] Dub () + Sub sokol_ok Скачать
2 | 0
Фильмы 2013 [DVDrip, WEB-DLRip, HDrip] [ 1.45 GB ] Кадры / The Internship [2013 BDRip-AVC] [Расширенная версия / Unrated Cut] Dub () + Sub sokol_ok Скачать
2 | 0
Фильмы [HD 720p, 1080p] (Хороший звук DUB, MVO) [ 6.52 GB ] Кадры / The Internship [ 2013 BDRip 720p ][UNRATED] МАКС1 Скачать
1 | 0

28-11-2019 20:33  

Отключить всю рекламу на сайте

10-10-2013 13:55 Кадры Скачать торрент  

извините но нужно отъехать по срочному делу, вернусь через час. если что-то не доделал исправлю по приезду pb.wtf



10-10-2013 14:13 Кадры Скачать торрент  

francuz

Уже подправил, не торопись. pb.wtf



10-10-2013 16:32 Кадры Скачать торрент  

лисяра писал(а):

francuz

Уже подправил, не торопись.

спасибо огромное извините если что-то было не так, опыта маловато :ad:pb.wtf



10-10-2013 20:02 Кадры Скачать торрент  

ХОРОШИЙ ФИЛЬМpb.wtf



17-10-2013 05:42 Кадры Скачать торрент  

Не осилили и половины фильма...pb.wtf



    Дорогой пользователь! Огромная просьба, поблагодарите релизера, оцените раздачу и оставьте свои комментарий, если Вы скачали Кадры через торрент бесплатно! Внесите свою лепту в развитие PiratBit!
    Комментировать посты могут только пользователи прошедшие не сложную регистрацию
    Показать сообщения:    

    Кадры через торрент
    Скачать бесплатно Кадры
    Кадры скачать торрент
    Кадры смотреть онлайн
    Cкачать фильм Кадры бесплатно
    Кадры скачать торрент в хорошем качестве
    Кадры смотреть онлайн бесплатно в хорошем качестве


    Вы не можете начинать темы
    Вы не можете отвечать на сообщения
    Вы не можете редактировать свои сообщения
    Вы не можете удалять свои сообщения
    Вы не можете голосовать в опросах
    Вы не можете прикреплять файлы к сообщениям
    Вы можете скачивать файлы