Ссылка на приватное зеркало нашего сайта всего за 1$. Внимание количество ограничено!!!

2 сезон

iTunes

1 сезон

1

2 сезон

2 сезон

iTunes

1 сезон

RePack

30

Ultimate

ВАЖНО

ИГРА 18+

pack

RePack

MK11
pack

Забери бонус

RePack

jed

!!Акция!!

Alien_Rage

RePack

fifa19

RePack

Assassins Creed: Odyssey

RePack

NEED FOR SPEED™ PAYBACK

4 сезон

9 сезон

Бесстыжие 9 сезон

Все сериалы

все сериалы на PB.wtf

RePack

FAR CRY 5
  

Кадры / The Internship (Шон Леви / Shawn Levy) [2013 г., Комедия, BDRip-AVC, Дубляж, Лицензия] [Театральная версия] pb.wtf

Кадры через торрент pb.wtf

Раздают: 1 [ 0 KB/s ]
Размер: 2.19 GB | Добавлен: 7 лет 1 мес. назад | Торрент скачан:458 раз
Скачать  

19-10-2013 04:19 Кадры Скачать торрент  

Кадры / The Internship
Год выпуска: 2013
Страна: США / 20th Century Fox Film Corporation...
Жанр: Комедия,
Продолжительность: 01:59:25
Перевод: Дубляж, Лицензия
Субтитры: Русские, английские

Режиссер: Шон Леви / Shawn Levy



В ролях: Винс Вон (Billy McMahon), Оуэн Уилсон (Nick Campbell), Роуз Бирн (Dana), Макс Мингелла (Graham Hawtrey), Аасиф Мандви (Mr. Chetty), Джош Бренер (Lyle), Дилан О’Брайэн (Stuart), Тия Сиркар (Neha), Тобит Рафаэль (Yo-Yo Santos), Джош Гад (Headphones), Джессика Зор (Marielena), Роб Риггл (Randy),

Описание: Билли и Ник всю жизнь занимаются продажами. Но новый компьютерный мир рушит их карьеру. Стараясь доказать, что они не отстали от жизни, они бросают вызов судьбе, получив желанную стажировку в компании Google вместе с командой лучших студентов колледжей. Но получить доступ в этот фантастический мир - это только половина дела. Сейчас им придется выдержать конкуренцию с самыми лучшими техническими гениями, чтобы доказать, что необходимость - это мать обновления.

Качество: BDRip-A VC
Формат: MKV
Видео кодек: H.264
Аудио кодек: AC3
Видео: 960x408 (2,35:1), 23,976 fps, 1851 Кbps, 0.197 bit/pixel
Аудио#1: 48 kHz, AC3 Dolby Digital, 3/2 (L,C,R,l,r) + LFE ch, 384.00 kbps | RUS
Аудио#2: 48 kHz, AC3 Dolby Digital, 3/2 (L,C,R,l,r) + LFE ch, 384.00 kbps | ENG

Релиз группы:
Автор рипа: potroks





Общее
Уникальный идентификатор : 221241084406442060504010107411195471039 (0xA6717BA1DF00D7C4BA369DABB247A4BF)
Полное имя : Kadry.2013.Theatrical.DUAL.BDRip.x264.-HELLYWOOD.mkv
Формат : Matroska
Версия формата : Version 4 / Version 2
Размер файла : 2,19 Гбайт
Продолжительность : 1 ч. 59 м.
Общий поток : 2622 Кбит/сек
Название фильма : HELLYWOOD - rip by potroks
Дата кодирования : UTC 2013-10-19 03:45:08
Программа кодирования : mkvmerge v5.9.0 ('On The Loose') built on Dec 15 2012 16:39:58
Библиотека кодирования : libebml v1.3.0 + libmatroska v1.4.0

Видео
Идентификатор : 1
Формат : AVC
Формат/Информация : Advanced Video Codec
Профиль формата : High@L4.1
Параметр CABAC формата : Да
Параметр ReFrames формата : 12 кадров
Идентификатор кодека : V_MPEG4/ISO/AVC
Продолжительность : 1 ч. 59 м.
Битрейт : 1851 Кбит/сек
Ширина : 960 пикселей
Высота : 408 пикселей
Соотношение сторон : 2,35:1
Режим частоты кадров : Постоянный
Частота кадров : 23,976 кадра/сек
Цветовое пространство : YUV
Субдискретизация насыщенности : 4:2:0
Битовая глубина : 8 бит
Тип развёртки : Прогрессивная
Бит/(Пиксели*Кадры) : 0.197
Размер потока : 1,50 Гбайт (69%)
Заголовок : The Internship
Библиотека кодирования : x264 core 130 r2273 b3065e6
Настройки программы : cabac=1 / ref=12 / deblock=1:-2:-2 / analyse=0x3:0x133 / me=umh / subme=11 / psy=1 / psy_rd=1.08:0.00 / mixed_ref=1 / me_range=48 / chroma_me=1 / trellis=2 / 8x8dct=1 / cqm=0 / deadzone=21,11 / fast_pskip=0 / chroma_qp_offset=-2 / threads=12 / lookahead_threads=3 / sliced_threads=0 / nr=0 / decimate=0 / interlaced=0 / bluray_compat=0 / constrained_intra=0 / bframes=13 / b_pyramid=2 / b_adapt=2 / b_bias=0 / direct=3 / weightb=1 / open_gop=0 / weightp=2 / keyint=250 / keyint_min=23 / scenecut=40 / intra_refresh=0 / rc_lookahead=60 / rc=2pass / mbtree=0 / bitrate=1851 / ratetol=1.0 / qcomp=0.70 / qpmin=0 / qpmax=69 / qpstep=4 / cplxblur=20.0 / qblur=0.5 / vbv_maxrate=20000 / vbv_bufsize=20000 / nal_hrd=none / ip_ratio=1.25 / pb_ratio=1.25 / aq=1:0.70
Язык : English
Default : Да
Forced : Нет

Аудио #1
Идентификатор : 2
Формат : AC-3
Формат/Информация : Audio Coding 3
Расширение режима : CM (complete main)
Параметр Endianness формата : Big
Идентификатор кодека : A_AC3
Продолжительность : 1 ч. 59 м.
Вид битрейта : Постоянный
Битрейт : 384 Кбит/сек
Каналы : 6 каналов
Расположение каналов : Front: L C R, Side: L R, LFE
Частота : 48,0 КГц
Битовая глубина : 16 бит
Метод сжатия : С потерями
Размер потока : 328 Мбайт (15%)
Заголовок : Dub | DD 5.1 @ 384 kbps
Язык : Russian
Default : Да
Forced : Да

Аудио #2
Идентификатор : 3
Формат : AC-3
Формат/Информация : Audio Coding 3
Расширение режима : CM (complete main)
Параметр Endianness формата : Big
Идентификатор кодека : A_AC3
Продолжительность : 1 ч. 59 м.
Вид битрейта : Постоянный
Битрейт : 384 Кбит/сек
Каналы : 6 каналов
Расположение каналов : Front: L C R, Side: L R, LFE
Частота : 48,0 КГц
Битовая глубина : 16 бит
Метод сжатия : С потерями
Размер потока : 328 Мбайт (15%)
Заголовок : Original | DD 5.1 @ 384 kbps
Язык : English
Default : Нет
Forced : Нет

Текст #1
Идентификатор : 4
Формат : UTF-8
Идентификатор кодека : S_TEXT/UTF8
Идентификатор кодека/Информация : UTF-8 Plain Text
Язык : Russian
Default : Нет
Forced : Нет

Текст #2
Идентификатор : 5
Формат : UTF-8
Идентификатор кодека : S_TEXT/UTF8
Идентификатор кодека/Информация : UTF-8 Plain Text
Язык : English
Default : Нет
Forced : Нет

Текст #3
Идентификатор : 6
Формат : UTF-8
Идентификатор кодека : S_TEXT/UTF8
Идентификатор кодека/Информация : UTF-8 Plain Text
Язык : English
Default : Нет
Forced : Нет

Меню
00:00:00.000 : en:(01)00:00:00:000
00:05:28.036 : en:(02)00:05:28:036
00:07:39.709 : en:(03)00:07:39:709
00:11:12.880 : en:(04)00:11:12:880
00:16:13.180 : en:(05)00:16:13:180
00:22:29.556 : en:(06)00:22:29:556
00:25:30.403 : en:(07)00:25:30:403
00:28:11.439 : en:(08)00:28:11:439
00:31:35.852 : en:(09)00:31:35:852
00:32:50.426 : en:(10)00:32:50:426
00:38:23.092 : en:(11)00:38:23:092
00:41:06.005 : en:(12)00:41:06:005
00:44:35.923 : en:(13)00:44:35:923
00:47:11.036 : en:(14)00:47:11:036
00:55:01.214 : en:(15)00:55:01:214
00:58:51.235 : en:(16)00:58:51:235
01:02:42.258 : en:(17)01:02:42:258
01:06:58.472 : en:(18)01:06:58:472
01:09:41.218 : en:(19)01:09:41:218
01:11:24.071 : en:(20)01:11:24:071
01:14:31.591 : en:(21)01:14:31:591
01:17:04.452 : en:(22)01:17:04:452
01:19:48.783 : en:(23)01:19:48:783
01:21:44.232 : en:(24)01:21:44:232
01:23:34.884 : en:(25)01:23:34:884
01:25:14.650 : en:(26)01:25:14:650
01:27:17.064 : en:(27)01:27:17:064
01:32:50.064 : en:(28)01:32:50:064
01:38:06.088 : en:(29)01:38:06:088
01:43:45.969 : en:(30)01:43:45:969
01:49:51.960 : en:(31)01:49:51:960
01:53:10.783 : en:(32)01:53:10:783
01:59:24.907 : en:(33)01:59:24:907

pb.wtf



Скачать Кадры через торрент http://i57.fastpic.ru/big/2013/1019/fb/05c4253e4fcb5bb8a0cbd6ee6b9cfbfb.png Скачать фильм Кадры через торрент бесплантно в хорошем качестве Описание: Билли и Ник всю жизнь занимаются продажами. Но новый компьютерный мир рушит их карьеру. Стараясь доказать, что они не отстали от ... 10 10 9
Info! Золотая раздача, скачанное не засчитывается.
Торрент: Зарегистрирован [2013-10-19 04:19] · скачан: 458 раз
Статус: √ проверено
Размер: 2.19 GB
Как cкачать? Как скачать Кадры через торрент | qTorrent

% Раздел Тема Автор DL S | L
Фильмы 2013 [DVDrip, WEB-DLRip, HDrip] [ 1.46 GB ] Кадры / The Internship [2013 BDRip-AVC ] [Расширенная версия] potroks Скачать
1 | 0
Фильмы 2013 [DVDrip, WEB-DLRip, HDrip] [ 1.37 GB ] Кадры / The Internship [UNRATED] [2013 HDRip ] MihailHD Скачать
1 | 0
Фильмы (DVD фильмы) [ 7.69 GB ] Кадры / The Internship [2013 DVD9] [] R5 voovaz Скачать
1 | 0
Фильмы 2013 [DVDrip, WEB-DLRip, HDrip] [ 2.05 GB ] Кадры / The Internship [2013 HDRip Лизензия] [UNRATED] francuz Скачать
1 | 0
Фильмы 2013 [DVDrip, WEB-DLRip, HDrip] [ 746 MB ] Кадры / The Internship [2013 BDRip-AVC] [Расширенная версия / Unrated Cut] Dub () + Sub sokol_ok Скачать
2 | 0
Фильмы 2013 [DVDrip, WEB-DLRip, HDrip] [ 1.45 GB ] Кадры / The Internship [2013 BDRip-AVC] [Расширенная версия / Unrated Cut] Dub () + Sub sokol_ok Скачать
2 | 0
Фильмы [HD 720p, 1080p] (Хороший звук DUB, MVO) [ 6.52 GB ] Кадры / The Internship [ 2013 BDRip 720p ][UNRATED] МАКС1 Скачать
1 | 0

28-11-2019 20:33  

Отключить всю рекламу на сайте

    Дорогой пользователь! Огромная просьба, поблагодарите релизера, оцените раздачу и оставьте свои комментарий, если Вы скачали Кадры через торрент бесплатно! Внесите свою лепту в развитие PiratBit!
    Комментировать посты могут только пользователи прошедшие не сложную регистрацию
    Показать сообщения:    

    Кадры через торрент
    Скачать бесплатно Кадры
    Кадры скачать торрент
    Кадры смотреть онлайн
    Cкачать фильм Кадры бесплатно
    Кадры скачать торрент в хорошем качестве
    Кадры смотреть онлайн бесплатно в хорошем качестве


    Вы не можете начинать темы
    Вы не можете отвечать на сообщения
    Вы не можете редактировать свои сообщения
    Вы не можете удалять свои сообщения
    Вы не можете голосовать в опросах
    Вы не можете прикреплять файлы к сообщениям
    Вы можете скачивать файлы