Ссылка на приватное зеркало нашего сайта всего за 1$. Внимание количество ограничено!!!

2 сезон

iTunes

1 сезон

1

iTunes

iTunes

iTunes

1 сезон

RePack

30

ИГРА 18+

pack

ВАЖНО

!!Акция!!

Alien_RageХит недели

RePack

MK11
pack

Забери бонус

RePack

jed

!!Акция!!

Alien_Rage

RePack

fifa19

RePack

Assassins Creed: Odyssey

RePack

NEED FOR SPEED™ PAYBACK

4 сезон

9 сезон

Бесстыжие 9 сезон

Все сериалы

все сериалы на PB.wtf

RePack

FAR CRY 5
  

Копы в юбках / The Heat [UNRATED] (Пол Фиг / Paul Feig) [2013 г., Комедия, криминал, боевик, детектив, BDRip 720p] Дубляж [Лицензия - BD EUR] + DUB Ukr + Original + Subs от HDCLUB pb.wtf

Копы в юбках через торрент pb.wtf

Размер: 8.09 GB | Добавлен: 6 лет 11 мес. назад | Торрент скачан:137 раз
Скачать  

01-11-2013 13:25 Копы в юбках Скачать торрент  

Копы в юбках / The Heat
«Крепкие булки, храброе сердце!»
Год выпуска: 2013
Страна: США
Жанр: комедия, криминал, боевик, детектив
Продолжительность: 02:00:20
Длиннее театральной на ~4 мин
Перевод: Профессиональный (полное дублирование) Лицензия
Субтитры: Russian (Forced, iTunes), Russian (iTunes), Ukrainian (iTunes), English, English (SDH), English (SDH-COLORED)
Режиссер: Пол Фиг / Paul Feig
В ролях: Сандра Буллок (Ashburn), Мелисса МакКарти (Mullins), Демиан Бишир (Hale), Марлон Уайанс (Levy), Майкл Рапапорт (Jason Mullins), Томас Ф. Уилсон (Captain Woods), Майкл МакДональд (Julian), Дэн Баккедаль (Craig), Таран Киллэм (Adam), Джейн Куртин (Mrs. Mullins), Майкл Туччи (Mr. Mullins), Спокен Ризонс (Rojas)
Описание:
Агенту ФБР и бостонскому полицейскому доверено ответственное задание: выйти на след и обезвредить безжалостного наркобарона.
Рейтинг
kinopoisk.ru: 6.916 (16 474)
imdb.com: 6.70 (50 284)
MPAA: R - Лицам до 17 лет обязательно присутствие взрослого
Качество: BDRip 720p
Формат: MKV
Видео кодек: AVC
Аудио кодек: DTS, AC3
Видео: AVC, 1280x534 (2.40:1), ~6700 kbps, 23,976 fps, 0,407 bpp
Аудио №1: русский / DTS / 5.1 / 48 kHz / 755 kbps / 24 bit |Дубляж, Blu-ray EUR|
Аудио №2: украинский / AC3 / 5.1 / 48 kHz / 448 kbps / 16 bit |Украинский Дубляж, Blu-ray EUR|
Аудио №3: английский / DTS / 5.1 / 48 kHz / 1510 kbps / 24 bit |Original|
Аудио №4: английский / AC3 / 2.0 / 48 kHz / 224 kbps / 16 bit |The Commentary Track In Which The Director Of The Heat Talks Endlessly About The Heat
|

Релиз от:
Рип: EbP
Оформление: Messa-fan
General
Unique ID : 177188147217197309826586337181697856542 (0x854D322354C15115B3EC2F77867C541E)
Complete name : F:videoThe.Heat.2013.UNRATED.720p.BluRay.DTS.Rus.Ukr.2xEng.HDCLUB.mkv
Format : Matroska
Format version : Version 2
File size : 8.09 GiB
Duration : 2h 0mn
Overall bit rate : 9 620 Kbps
Movie name : The Heat (2013) [UNRATED] - Release for HDCLUB
Encoded date : UTC 2013-10-31 15:18:39
Writing application : mkvmerge v3.4.0 ('Rapunzel') built on May 15 2010 09:38:20
Writing library : libebml v0.8.0 + libmatroska v0.9.0

Video
ID : 1
Format : AVC
Format/Info : Advanced Video Codec
Format profile : High@L4.1
Format settings, CABAC : Yes
Format settings, ReFrames : 12 frames
Codec ID : V_MPEG4/ISO/AVC
Duration : 2h 0mn
Bit rate : 6 666 Kbps
Width : 1 280 pixels
Height : 534 pixels
Display aspect ratio : 2.40:1
Frame rate : 23.976 fps
Color space : YUV
Chroma subsampling : 4:2:0
Bit depth : 8 bits
Scan type : Progressive
Bits/(Pixel*Frame) : 0.407
Stream size : 5.46 GiB (67%)
Title : The Heat (2013) [UNRATED] - Release for HDCLUB
Writing library : x264 core 138 r2358 9e941d1
Encoding settings : cabac=1 / ref=12 / deblock=1:-3:-3 / analyse=0x3:0x113 / me=umh / subme=10 / psy=1 / psy_rd=1.05:0.00 / mixed_ref=1 / me_range=32 / chroma_me=1 / trellis=2 / 8x8dct=1 / cqm=0 / deadzone=21,11 / fast_pskip=0 / chroma_qp_offset=-2 / threads=12 / lookahead_threads=2 / sliced_threads=0 / nr=0 / decimate=0 / interlaced=0 / bluray_compat=0 / constrained_intra=0 / bframes=8 / b_pyramid=2 / b_adapt=2 / b_bias=0 / direct=3 / weightb=1 / open_gop=0 / weightp=2 / keyint=240 / keyint_min=23 / scenecut=40 / intra_refresh=0 / rc_lookahead=120 / rc=2pass / mbtree=0 / bitrate=6666 / ratetol=1.0 / qcomp=0.60 / qpmin=0 / qpmax=69 / qpstep=4 / cplxblur=20.0 / qblur=0.5 / vbv_maxrate=62500 / vbv_bufsize=78125 / nal_hrd=none / ip_ratio=1.40 / pb_ratio=1.30 / aq=2:0.70
Language : English
Default : Yes
Forced : No

Audio #1
ID : 2
Format : DTS
Format/Info : Digital Theater Systems
Codec ID : A_DTS
Duration : 2h 0mn
Bit rate mode : Constant
Bit rate : 755 Kbps
Channel(s) : 6 channels
Channel positions : Front: L C R, Side: L R, LFE
Sampling rate : 48.0 KHz
Bit depth : 24 bits
Compression mode : Lossy
Stream size : 649 MiB (8%)
Title : DTS 5.1 @ 768 kbps - DUB, Blu-ray EUR
Language : Russian
Default : Yes
Forced : No

Audio #2
ID : 3
Format : AC-3
Format/Info : Audio Coding 3
Mode extension : CM (complete main)
Codec ID : A_AC3
Duration : 2h 0mn
Bit rate mode : Constant
Bit rate : 448 Kbps
Channel(s) : 6 channels
Channel positions : Front: L C R, Side: L R, LFE
Sampling rate : 48.0 KHz
Bit depth : 16 bits
Compression mode : Lossy
Stream size : 386 MiB (5%)
Title : AC3 5.1 @ 448 kbps - DUB, Blu-ray EUR
Language : Ukrainian
Default : No
Forced : No

Audio #3
ID : 4
Format : DTS
Format/Info : Digital Theater Systems
Codec ID : A_DTS
Duration : 2h 0mn
Bit rate mode : Constant
Bit rate : 1 510 Kbps
Channel(s) : 6 channels
Channel positions : Front: L C R, Side: L R, LFE
Sampling rate : 48.0 KHz
Bit depth : 24 bits
Compression mode : Lossy
Stream size : 1.27 GiB (16%)
Title : DTS 5.1 @ 1536 kbps
Language : English
Default : No
Forced : No

Audio #4
ID : 5
Format : AC-3
Format/Info : Audio Coding 3
Mode extension : CM (complete main)
Codec ID : A_AC3
Duration : 2h 0mn
Bit rate mode : Constant
Bit rate : 224 Kbps
Channel(s) : 2 channels
Channel positions : Front: L R
Sampling rate : 48.0 KHz
Bit depth : 16 bits
Compression mode : Lossy
Stream size : 193 MiB (2%)
Title : AC3 2.0 @ 224 kbps - The Commentary Track In Which The Director Of The Heat Talks Endlessly About The Heat
Language : English
Default : No
Forced : No

Text #1
ID : 6
Format : UTF-8
Codec ID : S_TEXT/UTF8
Codec ID/Info : UTF-8 Plain Text
Title : Forced
Language : Russian
Default : Yes
Forced : No

Text #2
ID : 7
Format : UTF-8
Codec ID : S_TEXT/UTF8
Codec ID/Info : UTF-8 Plain Text
Language : Russian
Default : No
Forced : No

Text #3
ID : 8
Format : UTF-8
Codec ID : S_TEXT/UTF8
Codec ID/Info : UTF-8 Plain Text
Language : Ukrainian
Default : No
Forced : No

Text #4
ID : 9
Format : UTF-8
Codec ID : S_TEXT/UTF8
Codec ID/Info : UTF-8 Plain Text
Language : English
Default : No
Forced : No

Text #5
ID : 10
Format : UTF-8
Codec ID : S_TEXT/UTF8
Codec ID/Info : UTF-8 Plain Text
Title : SDH
Language : English
Default : No
Forced : No

Text #6
ID : 11
Format : UTF-8
Codec ID : S_TEXT/UTF8
Codec ID/Info : UTF-8 Plain Text
Title : SDH-COLORED
Language : English
Default : No
Forced : No

Menu
00:00:00.000 : en:00:00:00.000
00:01:46.023 : en:00:01:46.023
00:05:28.453 : en:00:05:28.453
00:07:15.977 : en:00:07:15.977
00:11:26.436 : en:00:11:26.436
00:14:17.899 : en:00:14:17.899
00:16:38.956 : en:00:16:38.956
00:19:50.940 : en:00:19:50.940
00:23:23.610 : en:00:23:23.610
00:26:18.118 : en:00:26:18.118
00:30:11.977 : en:00:30:11.977
00:34:07.837 : en:00:34:07.837
00:36:27.101 : en:00:36:27.101
00:39:12.975 : en:00:39:12.975
00:44:44.140 : en:00:44:44.140
00:47:59.585 : en:00:47:59.585
00:52:59.801 : en:00:52:59.801
00:56:13.787 : en:00:56:13.787
01:00:57.779 : en:01:00:57.779
01:03:25.802 : en:01:03:25.802
01:05:47.151 : en:01:05:47.151
01:09:34.795 : en:01:09:34.795
01:17:00.574 : en:01:17:00.574
01:23:38.638 : en:01:23:38.638
01:26:51.623 : en:01:26:51.623
01:28:37.020 : en:01:28:37.020
01:31:07.420 : en:01:31:07.420
01:34:08.559 : en:01:34:08.559
01:37:03.234 : en:01:37:03.234
01:39:41.225 : en:01:39:41.225
01:44:20.671 : en:01:44:20.671
01:45:41.502 : en:01:45:41.502
01:48:54.569 : en:01:48:54.569
01:51:15.710 : en:01:51:15.710
01:54:02.711 : en:01:54:02.711
01:55:24.876 : en:01:55:24.876

  • В начале фильма героиня Сандры Буллок, переключая каналы по телевизору, останавливается на фильмах «Грязная игра» (1978) и «Матрица: Перезагрузка» (2003).
  • Релиз фильма был запланирован на 5 апреля, но был сдвинут на 2 месяца из-за того, что студия решила, что фильм лучше сделать летним релизом.
  • Первоначально Мелисса МакКарти не могла сниматься из-за обязательств перед фильмом «Поймай толстуху, если сможешь» (2013) и сериалом «Майк и Молли» (2010). Но позже ситуация разрешилась.
  • О запуске сиквела было объявлено до премьеры фильма.
  • еще 1 факт
  • В сцене ареста, где Маллинс кидает в подозреваемого арбузом, в разных кадрах меняется расположение арбуза и степень его повреждения.
  • В туалете клуба, когда Маллинс лишает напарницу половины одежды, в отражении зеркала видно, что блузка Эшбёрн то заправлена в юбку, то снова расправлена.
  • В баре, где Маллинс крадет файл у Эшбёрн, на двери висит знак: «Счастливый час с 3-6». Счастливый час является незаконным в штате Массачусетс.
  • У комнаты для допросов Маллинс жалуется на заколку Эшбёрн, после чего Эшбёрн вытаскивает заколку и убирает волосы за правое ухо. В последующих сценах ее волосы постоянно меняют свое положение.
  • После того как Сандра делает трахеотомию задыхающемуся посетителю ресторана, на ее рубашку брызгает кровь. В следующей сцене, когда она разговаривает с командой скорой помощи, крови уже нет.

  • pb.wtf



    Скачать Копы в юбках через торрент http://i6.imageban.ru/out/2013/11/01/419292594cd52d942051d57a1e52b105.jpg Скачать фильм Копы в юбках через торрент бесплантно в хорошем качестве Описание: Агенту ФБР и бостонскому полицейскому доверено ответственное задание: выйти на след и обезвредить безжалостного ... 9.4 10 12
    Info! Золотая раздача, скачанное не засчитывается.
    Торрент: Зарегистрирован [2013-11-01 13:25] · скачан: 137 раз
    Статус: √ проверено
    Размер: 8.09 GB
    Как cкачать? Как скачать Копы в юбках через торрент | qTorrent

    28-11-2019 20:33  

    Отключить всю рекламу на сайте

    01-11-2013 15:01 Копы в юбках Скачать торрент  

    вот это да...знал бы что будет укр дубляж,не смотрел бы до этого...pb.wtf



      Дорогой пользователь! Огромная просьба, поблагодарите релизера, оцените раздачу и оставьте свои комментарий, если Вы скачали Копы в юбках через торрент бесплатно! Внесите свою лепту в развитие PiratBit!
      Комментировать посты могут только пользователи прошедшие не сложную регистрацию
      Показать сообщения:    

      Копы в юбках через торрент
      Скачать бесплатно Копы в юбках
      Копы в юбках скачать торрент
      Копы в юбках смотреть онлайн
      Cкачать фильм Копы в юбках бесплатно
      Копы в юбках скачать торрент в хорошем качестве
      Копы в юбках смотреть онлайн бесплатно в хорошем качестве


      Вы не можете начинать темы
      Вы не можете отвечать на сообщения
      Вы не можете редактировать свои сообщения
      Вы не можете удалять свои сообщения
      Вы не можете голосовать в опросах
      Вы не можете прикреплять файлы к сообщениям
      Вы можете скачивать файлы