Ссылка на приватное зеркало нашего сайта всего за 1$. Внимание количество ограничено!!!

2 сезон

iTunes

1 сезон

1

2 сезон

2 сезон

iTunes

1 сезон

RePack

30

Ultimate

ВАЖНО

ИГРА 18+

pack

RePack

MK11
pack

Забери бонус

RePack

jed

!!Акция!!

Alien_Rage

RePack

fifa19

RePack

Assassins Creed: Odyssey

RePack

NEED FOR SPEED™ PAYBACK

4 сезон

9 сезон

Бесстыжие 9 сезон

Все сериалы

все сериалы на PB.wtf

RePack

FAR CRY 5
  

Крепкий орешек: Хороший день, чтобы умереть / A Good Day to Die Hard (Джон Мур) [2013 г., Боевик, триллер, криминал, BDRip-AVC, Дубляж, лицензия] pb.wtf

Крепкий орешек: Хороший день, чтобы умереть через торрент pb.wtf

Размер: 2.18 GB | Добавлен: 7 лет 4 мес. назад | Торрент скачан:1283 раза
Скачать  

08-07-2013 09:14 Крепкий орешек: Хороший день, чтобы умереть Скачать торрент  

Крепкий орешек: Хороший день чтобы умереть / A Good Day to Die Hard
  • Год выпуска: 2013
  • Страна: США
  • Жанр: Боевик, триллер, криминал
  • Продолжительность: 01:41:11
  • Перевод: Дубляж, Лицензия
  • Субтитры: Английские, английские (SDH), русские, английские (SDH)Color

  • Режиссер: Джон Мур
  • Продюссер: Вик Годфри, Алекс Янг, Стивен Дж. Идс
  • Сценарий: Скип Вудс, Родерик Торп

  • Бюджет: $92 000 000




  • В ролях: Брюс Уиллис, Джей Кортни, Себастьян Кох, Юлия Снигирь, Радивойе Буквич, Сергей Колесников, Мэри Элизабет Уинстэд, Коул Хаузер, Амори Ноласко, Роман Лукнар, Павел Лучникофф, Мэгалин Эчиканвоке, Мелисса Тэнг, Рико Симонини, Катрин Кресг, Эйприл Грэйс, Купер Торнтон

  • Описание: Джон МакКлейн прибывает в Москву, чтобы вызволить из тюрьмы своего непредсказуемого сына, но холодная голова и железные мускулы вязнут в паутине российской действительности. Дело, в которое влип МакКлейн-младший, оказывается настолько «опасной трясиной», что отцу и сыну, чтобы выжить и в очередной раз спасти мир, приходится объединить свои усилия, забыв прежние, казалось бы, непреодолимые разногласия.

  • Качество: BDRip-AVC
  • Формат: MKV
  • Видео кодек: H.264
  • Аудио кодек: AC3
  • Видео: H.264, 960x520 (1.85:1), 23,976 fps, 2327 Кbps, 0.194 bit/pixel
  • Аудио#1: 48 kHz, AC3 Dolby Digital, 3/2 (L,C,R,l,r) + LFE ch, 384.00 kbps | RUS
  • Аудио#2: 48 kHz, AC3 Dolby Digital, 3/2 (L,C,R,l,r) + LFE ch, 384.00 kbps | ENG







    D:Krepkij.Oreshek.Horoshyj.Den'.Chtoby.Umeret'.EXTENDED.2013.D.BDRip.
    General
    Unique ID : 181479154263385787236456171280867390066 (0x88879D1E9348DC01864C27289FE5F272)
    Complete name : D:Krepkij.Oreshek.Horoshyj.Den'.Chtoby.Umeret'.EXTENDED.2013.D.BDRip.
    Format : Matroska
    Format version : Version 2
    File size : 2.18 GiB
    Duration : 1h 41mn
    Overall bit rate : 3 091 Kbps
    Movie name :
    Encoded date : UTC 2013-05-26 01:23:09
    Writing application : mkvmerge v5.9.0 ('On The Loose') built on Dec 15 2012 16:39:58
    Writing library : libebml v1.3.0 + libmatroska v1.4.0
    Video #1
    ID : 1
    Format : AVC
    Format/Info : Advanced Video Codec
    Format profile : High@L4.1
    Format settings, CABAC : Yes
    Format settings, ReFrames : 13 frames
    Codec ID : V_MPEG4/ISO/AVC
    Duration : 1h 41mn
    Bit rate : 2 327 Kbps
    Width : 960 pixels
    Height : 520 pixels
    Display aspect ratio : 1.85:1
    Frame rate : 23.976 fps
    Color space : YUV
    Chroma subsampling : 4:2:0
    Bit depth : 8 bits
    Scan type : Progressive
    Bits/(Pixel*Frame) : 0.194
    Stream size : 1.60 GiB (73%)
    Title : A Good Day to Die Hard. EXTENDED
    Writing library : x264 core 125 r2208 d9d2288
    Encoding settings : cabac=1 / ref=13 / deblock=1:-3:-3 / analyse=0x3:0x133 / me=umh / subme=9 / psy=1 / psy_rd=0.96:0.01 / mixed_ref=1 / me_range=32 / chroma_me=1 / trellis=2 / 8x8dct=1 / cqm=0 / deadzone=21,11 / fast_pskip=0 / chroma_qp_offset=-3 / threads=9 / lookahead_threads=1 / sliced_threads=0 / nr=0 / decimate=1 / interlaced=0 / bluray_compat=0 / constrained_intra=0 / bframes=14 / b_pyramid=2 / b_adapt=2 / b_bias=0 / direct=3 / weightb=1 / open_gop=0 / weightp=2 / keyint=240 / keyint_min=23 / scenecut=40 / intra_refresh=0 / rc_lookahead=150 / rc=2pass / mbtree=1 / bitrate=2327 / ratetol=1.0 / qcomp=0.70 / qpmin=0 / qpmax=69 / qpstep=4 / cplxblur=20.0 / qblur=0.5 / vbv_maxrate=20000 / vbv_bufsize=20000 / nal_hrd=none / ip_ratio=1.35 / aq=1:0.90
    Language : English
    Default : Yes
    Forced : No
    Audio #2
    ID : 2
    Format : AC-3
    Format/Info : Audio Coding 3
    Mode extension : CM (complete main)
    Format settings, Endianness : Big
    Codec ID : A_AC3
    Duration : 1h 41mn
    Bit rate mode : Constant
    Bit rate : 384 Kbps
    Channel(s) : 6 channels
    Channel positions : Front: L C R, Side: L R, LFE
    Sampling rate : 48.0 KHz
    Bit depth : 16 bits
    Compression mode : Lossy
    Stream size : 278 MiB (12%)
    Language : Russian
    Default : Yes
    Forced : Yes
    Audio #3
    ID : 3
    Format : AC-3
    Format/Info : Audio Coding 3
    Mode extension : CM (complete main)
    Format settings, Endianness : Big
    Codec ID : A_AC3
    Duration : 1h 41mn
    Bit rate mode : Constant
    Bit rate : 384 Kbps
    Channel(s) : 6 channels
    Channel positions : Front: L C R, Side: L R, LFE
    Sampling rate : 48.0 KHz
    Bit depth : 16 bits
    Compression mode : Lossy
    Stream size : 278 MiB (12%)
    Title : Оригинал
    Language : English
    Default : No
    Forced : No
    Text #4
    ID : 4
    Format : UTF-8
    Codec ID : S_TEXT/UTF8
    Codec ID/Info : UTF-8 Plain Text
    Language : English
    Default : No
    Forced : No
    Text #5
    ID : 5
    Format : UTF-8
    Codec ID : S_TEXT/UTF8
    Codec ID/Info : UTF-8 Plain Text
    Title : SDH.Color
    Language : English
    Default : No
    Forced : No
    Text #6
    ID : 6
    Format : UTF-8
    Codec ID : S_TEXT/UTF8
    Codec ID/Info : UTF-8 Plain Text
    Title : SDH
    Language : English
    Default : No
    Forced : No
    Text #7
    ID : 7
    Format : UTF-8
    Codec ID : S_TEXT/UTF8
    Codec ID/Info : UTF-8 Plain Text
    Language : Russian
    Default : No

    Forced : No


    Крепкий орешек: Хороший день, чтобы умереть скачать торрент


    pb.wtf



  • Скачать Крепкий орешек: Хороший день, чтобы умереть через торрент http://pic.kartinco.top/images/3/gunlwdiawf.jpg Скачать фильм Крепкий орешек: Хороший день, чтобы умереть через торрент бесплантно в хорошем качестве Описание: Джон МакКлейн прибывает в Москву, чтобы вызволить из тюрьмы своего непредсказуемого сына, но холодная голова и железные мускулы ... 9.3 10 34
    Info! Золотая раздача, скачанное не засчитывается.
    Торрент: Зарегистрирован [2013-07-08 09:14] · скачан: 1 283 раз
    Статус: √ проверено
    Размер: 2.18 GB
    Как cкачать? Как скачать Крепкий орешек: Хороший день, чтобы умереть через торрент | qTorrent

    % Раздел Тема Автор DL S | L
    Ultra HD (UHD: 2K, 4K, 8K) — видео сверхвысокой чёткости [ 21.22 GB ] Крепкий орешек: Хороший день чтобы умереть / A Good Day to Die Hard [2013 UHD WEBRip 2160p] DUB sheker187 Скачать
    1 | 0
    Фильмы (Blu-ray, BD-Remux, HDDVD) [ 43.89 GB ] Крепкий орешек: Хороший день чтобы умереть / A Good Day to Die Hard [2013 Blu-ray CEE 1080p] DUB [2 в 1: Театральная и расширенная версии] sheker187 Скачать
    1 | 0
    Фильмы [HD 720p, 1080p] (Хороший звук DUB, MVO) [ 4.54 GB ] Крепкий орешек: Хороший день чтобы умереть / A Good Day to Die Hard [2013 BDRip 1080p HEVC ] [Extended Cut] Мичман37 Скачать
    1 | 0
    Фильмы 2013 [DVDrip, WEB-DLRip, HDrip] [ 1.37 GB ] Крепкий орешек: Хороший день чтобы умереть / A Good Day to Die Hard [2013 HDRip лицензия] [EXTENDED] Lyfe Скачать
    1 | 0
    Фильмы [HD 720p, 1080p] (Хороший звук DUB, MVO) [ 5.79 GB ] Крепкий орешек: Хороший день чтобы умереть / A Good Day to Die Hard [2013 слова BDRip 720p + Оригинал] Ke$h@ Скачать
    1 | 0
    Фильмы [HD 720p, 1080p] (Хороший звук DUB, MVO) [ 11.83 GB ] Крепкий орешек: Хороший день чтобы умереть / A Good Day to Die Hard [2013 слова BDRip 1080p + Оригинал] Ke$h@ Скачать
    1 | 0
    Фильмы (DVD фильмы) [ 5.68 GB ] Крепкий орешек: Хороший день чтобы умереть / A Good Day to Die Hard [2013 DVD9] R5 voovaz Скачать
    1 | 0

    28-11-2019 20:33  

    Отключить всю рекламу на сайте

      Дорогой пользователь! Огромная просьба, поблагодарите релизера, оцените раздачу и оставьте свои комментарий, если Вы скачали Крепкий орешек: Хороший день, чтобы умереть через торрент бесплатно! Внесите свою лепту в развитие PiratBit!
      Комментировать посты могут только пользователи прошедшие не сложную регистрацию
      Показать сообщения:    

      Крепкий орешек: Хороший день, чтобы умереть через торрент
      Скачать бесплатно Крепкий орешек: Хороший день, чтобы умереть
      Крепкий орешек: Хороший день, чтобы умереть скачать торрент
      Крепкий орешек: Хороший день, чтобы умереть смотреть онлайн
      Cкачать фильм Крепкий орешек: Хороший день, чтобы умереть бесплатно
      Крепкий орешек: Хороший день, чтобы умереть скачать торрент в хорошем качестве
      Крепкий орешек: Хороший день, чтобы умереть смотреть онлайн бесплатно в хорошем качестве


      Вы не можете начинать темы
      Вы не можете отвечать на сообщения
      Вы не можете редактировать свои сообщения
      Вы не можете удалять свои сообщения
      Вы не можете голосовать в опросах
      Вы не можете прикреплять файлы к сообщениям
      Вы можете скачивать файлы