Ссылка на приватное зеркало нашего сайта всего за 1$. Внимание количество ограничено!!!

2 сезон

iTunes

1 сезон

1

iTunes

iTunes

iTunes

1 сезон

RePack

30

ИГРА 18+

pack

ВАЖНО

!!Акция!!

Alien_RageХит недели

RePack

MK11
pack

Забери бонус

RePack

jed

!!Акция!!

Alien_Rage

RePack

fifa19

RePack

Assassins Creed: Odyssey

RePack

NEED FOR SPEED™ PAYBACK

4 сезон

9 сезон

Бесстыжие 9 сезон

Все сериалы

все сериалы на PB.wtf

RePack

FAR CRY 5
  

Линкольн / Lincoln (Стивен Спилберг) [2012 г., драма, военный, биография, история, BDRip 1080p] pb.wtf

Линкольн через торрент pb.wtf

Размер: 11.4 GB | Добавлен: 7 лет 7 мес. назад | Торрент скачан:418 раз
Скачать  

10-03-2013 04:26 Линкольн Скачать торрент  

Линкольн / Lincoln

Год выпуска: 2012
Страна: США
Жанр: драма, военный, биография, история
Продолжительность: 02:29:57
Перевод: Профессиональный (многоголосый, закадровый) [BaiBako]

Режиссер: Стивен Спилберг
Продюссер: Стивен Спилберг, Кэтлин Кеннеди, Джонатан Кинг
Сценарий: Тони Кушнер, Дорис Кернс Гудвин

Бюджет: $65 000 000
Премьера в мире: 8 октября 2012




В ролях: Дэниэл Дэй-Льюис, Салли Филд, Дэвид Стрэтэйрн, Джозеф Гордон-Левитт, Джеймс Спэйдер, Хэл Холбрук, Томми Ли Джонс, Джон Хоукс, Джеки Эрл Хейли, Брюс МакГилл, Алексей Иващенко, Николай Быстров, Всеволод Кузнецов, Алексей Борзунов, Владимир Антоник

Описание: Биографическая лента об Аврааме Линкольне, шестнадцатом президенте США, который внес неоценимый вклад в победу северян во времена гражданской войны.

Качество: BDRip 1080p
Формат: MKV
Видео кодек: H.26x
Аудио кодек: AC3
Видео: 1920x800, 23.976 fps, x264, ~8 925 Kbps, ~0.242 bit/pix
Аудио#1: (RUS) 48.0 KHz, AC3, 6 ch, ~448 Кбит/с
Аудио#2: (ENG) 48.0 KHz, DTS, 6 ch, ~1509 Кбит/с






General
Unique ID : 230657411329143063511522475976175956067 (0xAD870064C0B0397EBECD749094A0B063)
Complete name : E:Lincoln.2012.x264.BDRip.(1080p).mkv
Format : Matroska
Format version : Version 2
File size : 11.4 GiB
Duration : 2h 29mn
Overall bit rate : 10.9 Mbps
Movie name : |◄◄| ιι |Alexandr 80| ► | ■ |►►|
Encoded date : UTC 2013-03-09 18:27:47
Writing application : mkvmerge v4.3.0 ('Escape from the Island') сборка от Sep 5 2010 10:30:51
Writing library : libebml v1.0.0 + libmatroska v1.0.0

Video
ID : 1
Format : AVC
Format/Info : Advanced Video Codec
Format profile : High@L4.1
Format settings, CABAC : Yes
Format settings, ReFrames : 5 frames
Codec ID : V_MPEG4/ISO/AVC
Duration : 2h 29mn
Bit rate : 8 925 Kbps
Width : 1 920 pixels
Height : 800 pixels
Display aspect ratio : 2.40:1
Frame rate mode : Constant
Frame rate : 23.976 fps
Color space : YUV
Chroma subsampling : 4:2:0
Bit depth : 8 bits
Scan type : Progressive
Bits/(Pixel*Frame) : 0.242
Stream size : 9.12 GiB (80%)
Writing library : x264 core 130 r2273 b3065e6
Encoding settings : cabac=1 / ref=5 / deblock=1:0:0 / analyse=0x3:0x133 / me=umh / subme=7 / psy=1 / psy_rd=1.00:0.00 / mixed_ref=1 / me_range=16 / chroma_me=1 / trellis=1 / 8x8dct=1 / cqm=0 / deadzone=21,11 / fast_pskip=0 / chroma_qp_offset=-2 / threads=18 / lookahead_threads=3 / sliced_threads=0 / nr=0 / decimate=1 / interlaced=0 / bluray_compat=0 / constrained_intra=0 / bframes=3 / b_pyramid=2 / b_adapt=1 / b_bias=0 / direct=1 / weightb=1 / open_gop=0 / weightp=2 / keyint=250 / keyint_min=23 / scenecut=40 / intra_refresh=0 / rc_lookahead=40 / rc=2pass / mbtree=1 / bitrate=8925 / ratetol=1.0 / qcomp=0.60 / qpmin=0 / qpmax=69 / qpstep=4 / cplxblur=20.0 / qblur=0.5 / ip_ratio=1.40 / aq=1:1.00
Language : English
Default : Yes
Forced : No

Audio #1
ID : 2
Format : AC-3
Format/Info : Audio Coding 3
Mode extension : CM (complete main)
Format settings, Endianness : Big
Codec ID : A_AC3
Duration : 2h 29mn
Bit rate mode : Constant
Bit rate : 448 Kbps
Channel(s) : 6 channels
Channel positions : Front: L C R, Side: L R, LFE
Sampling rate : 48.0 KHz
Bit depth : 16 bits
Compression mode : Lossy
Stream size : 480 MiB (4%)
Title : Профессиональный многоголосый - BaibaKo
Language : Russian
Default : Yes
Forced : No

Audio #2
ID : 3
Format : DTS
Format/Info : Digital Theater Systems
Mode : 16
Format settings, Endianness : Big
Codec ID : A_DTS
Duration : 2h 29mn
Bit rate mode : Constant
Bit rate : 1 509 Kbps
Channel(s) : 6 channels
Channel positions : Front: L C R, Side: L R, LFE
Sampling rate : 48.0 KHz
Bit depth : 24 bits
Compression mode : Lossy
Delay relative to video : 11ms
Stream size : 1.58 GiB (14%)
Title : Оригинал
Language : English
Default : No
Forced : No

Text #1
ID : 4
Format : UTF-8
Codec ID : S_TEXT/UTF8
Codec ID/Info : UTF-8 Plain Text
Language : Russian
Default : No
Forced : No

Text #2
ID : 5
Format : UTF-8
Codec ID : S_TEXT/UTF8
Codec ID/Info : UTF-8 Plain Text
Language : English
Default : No
Forced : No

Menu
00:00:00.000 : en:00:00:00.000
00:06:11.246 : en:00:06:11.246
00:13:57.920 : en:00:13:57.920
00:23:16.604 : en:00:23:16.604
00:35:13.570 : en:00:35:13.570
00:40:31.929 : en:00:40:31.929
00:45:53.793 : en:00:45:53.793
00:52:56.840 : en:00:52:56.840
00:59:45.874 : en:00:59:45.874
01:08:25.977 : en:01:08:25.977
01:18:55.940 : en:01:18:55.940
01:24:30.607 : en:01:24:30.607
01:35:41.486 : en:01:35:41.486
01:39:58.868 : en:01:39:58.868
01:46:40.769 : en:01:46:40.769
01:52:54.184 : en:01:52:54.184
02:02:51.030 : en:02:02:51.030
02:09:32.264 : en:02:09:32.264
02:15:42.718 : en:02:15:42.718
02:21:23.308 : en:02:21:23.308


Линкольн скачать торрент


pb.wtf



Скачать Линкольн через торрент http://s017.radikal.ru/i435/1303/7f/7b54ae5cfd92.jpg Скачать фильм Линкольн через торрент бесплантно в хорошем качестве Описание: Биографическая лента об Аврааме Линкольне, шестнадцатом президенте США, который внес неоценимый вклад в победу северян во времена ... 9.5 10 2
Info! Золотая раздача, скачанное не засчитывается.
Торрент: Зарегистрирован [2013-03-10 04:26] · скачан: 418 раз
Статус: √ проверено
Размер: 11.4 GB
Как cкачать? Как скачать Линкольн через торрент | qTorrent

% Раздел Тема Автор DL S | L
Зарубежные сериалы [ 7.66 GB ] Линкольн Райм: Охота на Собирателя костей / Lincoln Rhyme: Hunt for the Bone Collector / Сезон: 1 / Серии: 1-3 из 10 [2020 WEB-DL 1080p] MVO [SDI Media] bober100 Скачать
1 | 0
Зарубежные сериалы [ 5.98 GB ] Линкольн Райм: Охота на Собирателя костей / Lincoln Rhyme: Hunt for the Bone Collector / Сезон: 1 / Серии: 1-10 из 10 [2020 WEB-DLRip] [MVO] killermax2013 Скачать
3 | 0
Зарубежные сериалы [ 10.17 GB ] Линкольн Райм: Охота на Собирателя костей / Lincoln Rhyme: Hunt for the Bone Collector / Сезон: 1 / Серии: 1-10 из 10 [2020 WEBRip 720p] DVO [Gears Media] bober100 Скачать
3 | 1
Зарубежные сериалы [ 11.49 GB ] Линкольн Райм: Охота на Собирателя костей / Lincoln Rhyme: Hunt for the Bone Collector / Сезон: 1 / Серии: 1-10 из 10 [2020 WEB-DL 720p] MVO [TVShows] bober100 Скачать
2 | 0
Зарубежные сериалы [ 22.53 GB ] Линкольн Райм: Охота на Собирателя костей / Lincoln Rhyme: Hunt for the Bone Collector / Сезон: 1 / Серии: 1-10 из 10 [2020 WEB-DL 1080p] MVO [TVShows] bober100 Скачать
1 | 0
Зарубежные сериалы [ 28.08 GB ] Линкольн Райм: Охота на Собирателя костей / Lincoln Rhyme: Hunt for the Bone Collector / Сезон: 1 / Серии: 1-10 из 10 [2020 WEBRip 1080p] DVO [Gears Media] bober100 Скачать
1 | 0
Ultra HD (UHD: 2K, 4K, 8K) — видео сверхвысокой чёткости [ 66.44 GB ] Линкольн для адвоката / The Lincoln Lawyer [2011 UHD BD Remux 2160p] DUB [rus ukr] + 2xAVO sheker187 Скачать
1 | 0

28-11-2019 20:33  

Отключить всю рекламу на сайте

    Дорогой пользователь! Огромная просьба, поблагодарите релизера, оцените раздачу и оставьте свои комментарий, если Вы скачали Линкольн через торрент бесплатно! Внесите свою лепту в развитие PiratBit!
    Комментировать посты могут только пользователи прошедшие не сложную регистрацию
    Показать сообщения:    

    Линкольн через торрент
    Скачать бесплатно Линкольн
    Линкольн скачать торрент
    Линкольн смотреть онлайн
    Cкачать фильм Линкольн бесплатно
    Линкольн скачать торрент в хорошем качестве
    Линкольн смотреть онлайн бесплатно в хорошем качестве


    Вы не можете начинать темы
    Вы не можете отвечать на сообщения
    Вы не можете редактировать свои сообщения
    Вы не можете удалять свои сообщения
    Вы не можете голосовать в опросах
    Вы не можете прикреплять файлы к сообщениям
    Вы можете скачивать файлы