2 сезон

iTunes

MVO

1

2 сезон

iTunes

iTunes

1 сезон

RePack

30

Ultimate

ВАЖНО

ИГРА 18+

pack

RePack

MK11
pack

Легкие деньги

RePack

jed

RePack

fifa19

RePack

RDR2

RePack

NEED FOR SPEED™ PAYBACK

4 сезон

9 сезон

Бесстыжие 9 сезон

Все сериалы

все сериалы на PB.wtf

RePack

FAR CRY 5

Anonymous, доброй ночи, мы не успеваем собрать деньги на оплату серверов за декабрь и январь, помогите нам пожалуйста в это трудное время. В качестве благодарности мы отключим Вам всю рекламу на сайте (укажите свой ник в строку Ваше имя)!

×
  
Magnet ссылка

Мальчишник: Часть III / The Hangover Part III (Тодд Филлипс / Todd Phillips) [2013, США, комедия, WEB-DLRip-AVC] Dub + Ukr + Eng + Sub (rus, ukr) pb.wtf

Мальчишник: Часть III через торрент pb.wtf

Размер: 1.65 GB | Добавлен: 7 лет 4 мес. назад | Торрент скачан:139 раз
Скачать  

20-09-2013 09:58 Мальчишник: Часть III Скачать торрент  

Мальчишник: Часть III / The Hangover Part III
«Вот это конец»
Страна: США / Green Hat Films, Legendary Pictures
Жанр: комедия
Год выпуска: 2013
Продолжительность: 01:40:06

Перевод: Профессиональный (полное дублирование) [iTunes Russia]
Cубтитры: Russian (full, forced), Ukrainian (full, forced)

Режиссер: Тодд Филлипс / Todd Phillips

В ролях: Брэдли Купер, Эд Хелмс, Зак Галифианакис, Кен Жонг, Хэзер Грэм, Джеффри Тэмбор, Джастин Барта, Джон Гудман, Мелисса МакКарти, Майк Эппс

Описание: В этот раз никакой свадьбы. Никакого мальчишника. Казалось бы, что могло пойти не так? Но когда Волчья стая оказывается на дороге, все ставки снимаются.

|

Релиз:

Автор рипа: S.T.A.L.K.E.R.2 (aka Stalker oK)

Сэмпл: http://multi-up.com/905043

Качество: WEB-DLRip-AVC [WEB-DL 720р]
Формат: MKV
Видео кодек: AVC
Аудио кодек: AC3
Видео: 1693 Кбит/сек, 996*414 (2,40:1), в 23,976 кадр/сек, AVC
Аудио #1: Russian, 48 kHz, AC3, 3/2 (L,C,R,l,r) + LFE ch, ~384.00 kbps avg
Аудио #2: Ukrainian, 48 kHz, AAC, 2/0 (L,R) ch, ~160.00 kbps avg (отдельно)
Аудио #3: English, 48 kHz, AAC, 2/0 (L,R) ch, ~160.00 kbps avg (отдельно)
Общее
Уникальный идентификатор : 202357821527349074104533856023073872171 (0x983CB2E44C40DB7DB272EC8F2865592B)
Полное имя : H:Мальчишник 3Мальчишник 3Mal'chishnik_Chast'_III_2013_WEB_DLRip_AVC__stalkerok.mkv
Формат : Matroska
Размер файла : 1,45 Гбайт
Продолжительность : 1 ч. 40 м.
Общий поток : 2077 Кбит/сек
Название фильма : The Hangover Part III 2013 (Youtracker) (Rip by Stalker oK)
Дата кодирования : UTC 2013-09-20 09:32:17
Программа кодирования : mkvmerge v6.2.0 ('Promised Land') built on Apr 28 2013 12:22:01
Библиотека кодирования : libebml v1.3.0 + libmatroska v1.4.0

Видео
Идентификатор : 1
Формат : AVC
Формат/Информация : Advanced Video Codec
Профиль формата : High@L4.1
Параметр CABAC формата : Да
Параметр ReFrames формата : 9 кадры
Идентификатор кодека : V_MPEG4/ISO/AVC
Продолжительность : 1 ч. 40 м.
Битрейт : 1693 Кбит/сек
Ширина : 996 пикс.
Высота : 414 пикс.
Соотношение сторон : 2,40:1
Частота кадров : 23,976 кадр/сек
Цветовое пространство : YUV
Подвыборка цветности : 4:2:0
Битовая глубина : 8 бит
Тип развёртки : Прогрессивная
Бит/(Пиксели*Кадры) : 0.171
Размер потока : 1,16 Гбайт (80%)
Библиотека кодирования : x264 core 130 r2273 b3065e6
Настройки программы : cabac=1 / ref=9 / deblock=1:-2:-2 / analyse=0x3:0x133 / me=umh / subme=11 / psy=1 / psy_rd=1.05:0.15 / mixed_ref=1 / me_range=32 / chroma_me=1 / trellis=2 / 8x8dct=1 / cqm=0 / deadzone=21,11 / fast_pskip=0 / chroma_qp_offset=-3 / threads=4 / lookahead_threads=1 / sliced_threads=0 / nr=0 / decimate=0 / interlaced=0 / bluray_compat=0 / constrained_intra=0 / bframes=11 / b_pyramid=2 / b_adapt=2 / b_bias=0 / direct=3 / weightb=1 / open_gop=0 / weightp=2 / keyint=240 / keyint_min=23 / scenecut=40 / intra_refresh=0 / rc_lookahead=60 / rc=2pass / mbtree=1 / bitrate=1693 / ratetol=2.0 / qcomp=0.70 / qpmin=0 / qpmax=69 / qpstep=4 / cplxblur=20.0 / qblur=0.5 / vbv_maxrate=45000 / vbv_bufsize=50000 / nal_hrd=none / ip_ratio=1.25 / aq=2:0.80

Аудио
Идентификатор : 2
Формат : AC-3
Формат/Информация : Audio Coding 3
Расширение режима : CM (complete main)
Идентификатор кодека : A_AC3
Продолжительность : 1 ч. 40 м.
Вид битрейта : Постоянный
Битрейт : 384 Кбит/сек
Канал(ы) : 6 канала(ов)
Расположение каналов : Front: L C R, Side: L R, LFE
Частота : 48,0 КГц
Битовая глубина : 16 бит
Метод сжатия : С потерями
Размер потока : 275 Мбайт (18%)
Заголовок : AC3 5.1 @ 384 kbps iTunes
Язык : Russian

Текст #1
Идентификатор : 3
Формат : UTF-8
Идентификатор кодека : S_TEXT/UTF8
Идентификатор кодека/Информация : UTF-8 Plain Text
Заголовок : Full
Язык : Russian

Текст #2
Идентификатор : 4
Формат : UTF-8
Идентификатор кодека : S_TEXT/UTF8
Идентификатор кодека/Информация : UTF-8 Plain Text
Заголовок : Forced
Язык : Russian

Текст #3
Идентификатор : 5
Формат : UTF-8
Идентификатор кодека : S_TEXT/UTF8
Идентификатор кодека/Информация : UTF-8 Plain Text
Заголовок : Full
Язык : Ukrainian

Текст #4
Идентификатор : 6
Формат : UTF-8
Идентификатор кодека : S_TEXT/UTF8
Идентификатор кодека/Информация : UTF-8 Plain Text
Заголовок : Forced
Язык : Ukrainian

Меню
00:00:00.000 : en:1
00:10:47.000 : en:2
00:17:44.000 : en:3
00:26:13.000 : en:4
00:37:52.000 : en:5
00:46:56.000 : en:6
00:55:03.000 : en:7
01:06:03.000 : en:8
01:19:34.000 : en:9
01:27:37.000 : en:10
01:34:45.000 : en:11
pb.wtf



Скачать Мальчишник: Часть III через торрент http://i59.fastpic.ru/big/2013/0920/f9/3cea9c026b8041f3c33de854753dc3f9.png Скачать фильм Мальчишник: Часть III через торрент бесплантно в хорошем качестве Описание: В этот раз никакой свадьбы. Никакого мальчишника. Казалось бы, что могло пойти не так? Но когда Волчья стая оказывается на ... 9.7 10 9
Info! Золотая раздача, скачанное не засчитывается.
Торрент: Зарегистрирован [2013-09-20 09:58] · скачан: 139 раз
Статус: √ проверено
Размер: 1.65 GB
Как cкачать? Как скачать Мальчишник: Часть III через торрент | UTorrent

% Раздел Тема Автор DL S | L
Ultra HD (UHD: 2K, 4K, 8K) — видео сверхвысокой чёткости [ 19.6 GB ] Мальчишник: Часть III / The Hangover Part III [2013 UHD WEBRip 2160p] AVO+DUB bober100 Скачать
1 | 1
Фильмы 2013 [DVDrip, WEB-DLRip, HDrip] [ 1.46 GB ] Мальчишник: Часть III / The Hangover Part III [2013 HDRip [Цифровая / Russia] Ворон Скачать
1 | 0
Фильмы 2013 [DVDrip, WEB-DLRip, HDrip] [ 2.06 GB ] Мальчишник: Часть III / The Hangover Part III [2013 BDRip ] coc900 Скачать
1 | 0
Фильмы 2013 [DVDrip, WEB-DLRip, HDrip] [ 1.46 GB ] Мальчишник: Часть III / The Hangover Part III [2013 BDRip-AVC] Dub () sokol_ok Скачать
1 | 0
Фильмы 2013 [DVDrip, WEB-DLRip, HDrip] [ 2.2 GB ] Мальчишник: Часть III / The Hangover Part III [2013 BDRip-AVC] Dub + AVO + Eng + Sub sokol_ok Скачать
2 | 0
Фильмы (DVD фильмы) [ 5.54 GB ] Мальчишник: Часть III / The Hangover Part III [2013 DVD9] R5 voovaz Скачать
1 | 0
Фильмы 2013 [DVDrip, WEB-DLRip, HDrip] [ 1.46 GB ] Мальчишник: Часть III / The Hangover Part III [2013 HDRip] AVO [Д. Пучков aka Гоблин] [ ] Ворон Скачать
1 | 0

28-11-2019 20:33  

Отключить всю рекламу на сайте

    Дорогой пользователь! Огромная просьба, поблагодарите релизера, оцените раздачу и оставьте свои комментарий, если Вы скачали Мальчишник: Часть III через торрент бесплатно! Внесите свою лепту в развитие PiratBit!
    Комментировать посты могут только пользователи прошедшие не сложную регистрацию
    Показать сообщения:    

    Мальчишник: Часть III через торрент
    Скачать бесплатно Мальчишник: Часть III
    Мальчишник: Часть III скачать торрент
    Мальчишник: Часть III смотреть онлайн
    Cкачать фильм Мальчишник: Часть III бесплатно
    Мальчишник: Часть III скачать торрент в хорошем качестве
    Мальчишник: Часть III смотреть онлайн бесплатно в хорошем качестве


    Вы не можете начинать темы
    Вы не можете отвечать на сообщения
    Вы не можете редактировать свои сообщения
    Вы не можете удалять свои сообщения
    Вы не можете голосовать в опросах
    Вы не можете прикреплять файлы к сообщениям
    Вы можете скачивать файлы