2 сезон

iTunes

MVO

1

2 сезон

iTunes

iTunes

1 сезон

RePack

30

Ultimate

ВАЖНО

ИГРА 18+

pack

RePack

MK11
pack

Легкие деньги

RePack

jed

RePack

fifa19

RePack

RDR2

RePack

NEED FOR SPEED™ PAYBACK

4 сезон

9 сезон

Бесстыжие 9 сезон

Все сериалы

все сериалы на PB.wtf

RePack

FAR CRY 5

Anonymous, добрый день, мы не успеваем собрать деньги на оплату серверов за декабрь и январь, помогите нам пожалуйста в это трудное время. В качестве благодарности мы отключим Вам всю рекламу на сайте (укажите свой ник в строку Ваше имя)!

×
  
Magnet ссылка

Мама / Mama (Андрес Мускетти / Andrés Muschietti) [2013, Испания, Канада, ужасы, фэнтези, триллер, HDRip] Dub [ лицензия ] pb.wtf

Мама через торрент pb.wtf

Размер: 745 MB | Добавлен: 7 лет 8 мес. назад | Торрент скачан:682 раза
Скачать  

23-05-2013 10:34 Мама Скачать торрент  

Мама / Mama
Год выхода: 2013
Выпущено: Испания, Канада / Toma 78, De Milo
Жанр: ужасы, фэнтези, триллер
Продолжительность: 01:40:06
Перевод: Профессиональный (полное дублирование) | Лицензия
Субтитры: нет

Режиссер: Андрес Мускетти / Andrés Muschietti

В ролях: Джессика Честейн, Николай Костер-Вальдау, Меган Чарпентье, Изабель Нелисс, Дэниэл Кэш, Хавьер Боте, Джейн Моффат, Морган МакГарри, Дэвид Фокс, Доминик Куццокреа

Описание: В заброшенной хижине в чаще леса найдены две девочки. Таинственным образом они прожили в пустом доме пять лет. Найденных сирот забирают единственные родственники, молодая супружеская пара. Но девочки не одиноки, у них есть мама, и она приходит из тьмы…

Качество: HDRip
Формат: AVI
Видео кодек: XviD
Аудио кодек: MP3
Видео: 656x352 (1.86:1), 23.976 fps, XviD build 50 ~903 kbps avg, 0.16 bit/pixel
Аудио: 48 kHz, MPEG Layer 3, 2 ch, ~128.00 kbps avg
Раздача от:
D:Mama.2013.D.HDRip.745. [YTN] by dexter lex.avi
General
Complete name : D:Mama.2013.D.HDRip.745. [YTN] by dexter lex.avi
Format : AVI
Format/Info : Audio Video Interleave
File size : 745 MiB
Duration : 1h 40mn
Overall bit rate : 1 040 Kbps
Writing application : VirtualDubMod 1.5.10.3 | www.virtualdub-fr.org || (build 2550/release)
Writing library : VirtualDubMod build 2550/release
Video #0
ID : 0
Format : MPEG-4 Visual
Format profile : Advanced Simple@L5
Format settings, BVOP : 1
Format settings, QPel : No
Format settings, GMC : No warppoints
Format settings, Matrix : Custom
Codec ID : XVID
Codec ID/Hint : XviD
Duration : 1h 40mn
Bit rate : 903 Kbps
Width : 656 pixels
Height : 352 pixels
Display aspect ratio : 1.86:1
Frame rate : 23.976 fps
Color space : YUV
Chroma subsampling : 4:2:0
Bit depth : 8 bits
Scan type : Progressive
Compression mode : Lossy
Bits/(Pixel*Frame) : 0.163
Stream size : 646 MiB (87%)
Writing library : XviD 1.2.1 (UTC 2008-12-04)
Audio #1
ID : 1
Format : MPEG Audio
Format version : Version 1
Format profile : Layer 3
Codec ID : 55
Codec ID/Hint : MP3
Duration : 1h 40mn
Bit rate mode : Constant
Bit rate : 128 Kbps
Channel(s) : 2 channels
Sampling rate : 48.0 KHz
Compression mode : Lossy
Stream size : 91.6 MiB (12%)
Alignment : Aligned on interleaves
Interleave, duration : 42 ms (1.00 video frame)
Interleave, preload duration : 504 ms
Writing library : LAME3.99r
Encoding settings : -m s -V 4 -q 2 -lowpass 17 -b 128
pb.wtf



Скачать Мама через торрент http://i46.fastpic.ru/big/2013/0523/b4/f2d489abc7cc2b7995c088b09949d8b4.png Скачать фильм Мама через торрент бесплантно в хорошем качестве Описание: В заброшенной хижине в чаще леса найдены две девочки. Таинственным образом они прожили в пустом доме пять лет. Найденных сирот ... 9.7 10 20
Info! Золотая раздача, скачанное не засчитывается.
Торрент: Зарегистрирован [2013-05-23 10:34] · скачан: 682 раз
Статус: √ проверено
Размер: 745 MB
Как cкачать? Как скачать Мама через торрент | UTorrent

% Раздел Тема Автор DL S | L
Порно фильмы HD [ 1.96 GB ] Ла Маман де Брюс д'Анус / La maman de Bruce d'Anus [2020 MILF Gonzo Anal WEB-DL 720p] Скорпион1976 Скачать
1 | 0
Фильмы [HD 720p, 1080p] (Хороший звук DUB, MVO) [ 7.83 GB ] Сбрось маму с поезда / Throw Momma from the Train [1987 BDRip 1080p] DUB+2xMVO+2xDVO+AVO bober100 Скачать
2 | 0
Порно фильмы HD [ 2.33 GB ] Мамы любят хардкор / Les mamans les aiment bien dures [2019 MILF Amateur Threesome SiteRip 720p] Скорпион1976 Скачать
1 | 0
Порно фильмы с русским переводом [ 997 MB ] Итальянские Мамочки! Мама Миа! / Private Specials 34: Italian MILFs! Mamma Mia! [2005 Anal DP MILFs. DVDRip VO Перевод: ] Pir@tya2010 Скачать
1 | 0
Мультфильмы / Cartoons [ 420 MB ] Запах Мамы?! / Выбрать маму?! / Like A Mom / Mama Puritsu?! [2009 Feature Harem Housewives Big Boobs Group Comedy DVDRip Оригинальный] DJASFUL Скачать
1 | 0
Фильмы [HD 720p, 1080p] (Хороший звук DUB, MVO) [ 3.91 GB ] Мама / Mama [2013 BDRip 1080p HEVC ] Мичман37 Скачать
1 | 0
Гонзо [ 1.21 GB ] Мамы Глотают 2 / MILF Swallow 2 [2017 Big Boobs Cumshots Mature MILF Swallowing DVDRip] Pir@tya2010 Скачать
1 | 0

28-11-2019 20:33  

Отключить всю рекламу на сайте

25-05-2013 03:33 Мама Скачать торрент  

спасибо! люблю такой трешачок pb.wtf



    Дорогой пользователь! Огромная просьба, поблагодарите релизера, оцените раздачу и оставьте свои комментарий, если Вы скачали Мама через торрент бесплатно! Внесите свою лепту в развитие PiratBit!
    Комментировать посты могут только пользователи прошедшие не сложную регистрацию
    Показать сообщения:    

    Мама через торрент
    Скачать бесплатно Мама
    Мама скачать торрент
    Мама смотреть онлайн
    Cкачать фильм Мама бесплатно
    Мама скачать торрент в хорошем качестве
    Мама смотреть онлайн бесплатно в хорошем качестве


    Вы не можете начинать темы
    Вы не можете отвечать на сообщения
    Вы не можете редактировать свои сообщения
    Вы не можете удалять свои сообщения
    Вы не можете голосовать в опросах
    Вы не можете прикреплять файлы к сообщениям
    Вы можете скачивать файлы