Ссылка на приватное зеркало нашего сайта всего за 1$. Внимание количество ограничено!!!

2 сезон

iTunes

1 сезон

1

2 сезон

2 сезон

iTunes

1 сезон

RePack

30

Ultimate

ВАЖНО

ИГРА 18+

pack

RePack

MK11
pack

Забери бонус

RePack

jed

!!Акция!!

Alien_Rage

RePack

fifa19

RePack

Assassins Creed: Odyssey

RePack

NEED FOR SPEED™ PAYBACK

4 сезон

9 сезон

Бесстыжие 9 сезон

Все сериалы

все сериалы на PB.wtf

RePack

FAR CRY 5
  

Мы – Миллеры / We're the Millers (Роусон Маршалл Тёрбер / Rawson Marshall Thurber) [ 2013 , США , комедия, криминал , BDRemux ] DUB (iTunes) [Theatrical Cut] pb.wtf

Мы – Миллеры через торрент pb.wtf

Размер: 21.36 GB | Добавлен: 7 лет назад | Торрент скачан:202 раза
Скачать  

16-11-2013 00:10 Мы – Миллеры Скачать торрент  

Мы – Миллеры / We're the MillersГод выпуска: 2013
Страна: США
Жанр: комедия, криминал

Продолжительность: 01:49:53
Перевод: Профессиональный (полное дублирование)(iTunes)
Субтитры: нглийский (SDH), Французкий, Португальский (Full, Forced), Испанский (Full, Forced)
Режиссер: Роусон Маршалл Тёрбер / Rawson Marshall Thurber
В ролях: Дженнифер Энистон (Rose O'Reilly), Джейсон Судейкис (David Clark), Эмма Робертс (Casey Mathis), Уилл Поултер (Kenny Rossmore), Эд Хелмс (Brad Gurdlinger), Ник Офферман (Don Fitzgerald), Кэтрин Хан (Edie Fitzgerald), Молли С. Куинн (Melissa Fitzgerald), Томер Сисле (Pablo Chacon), Мэттью Уиллиг (One-Eye), Луис Гусман (Mexican Cop), Томас Леннон (Rick Nathanson)
Описание:
Дэвид Берк - мелкий торговец наркотиками. Среди его клиентов - повара и скучающие домохозяйки. Детям он наркотики не продаёт и поэтому считает себя принципиальным человеком. Дэвид действительно хорошо относится к детям, но это не остается безнаказанным - он пытается помочь подросткам, попавшим в беду, и на него нападают хулиганы-панки. Они отбирают у него наркотики и деньги, и наш герой оказывается в отчаянном положении. Ведь ему нечем расплатиться с его поставщиком Брэдом. Единственный выход - подрядиться на доставку крупной партии наркотиков через границу...
Рейтинг
kinopoisk.ru: 7.644 (41 862)
imdb.com: 7.10 (77 946)
MPAA: R - Лицам до 17 лет обязательно присутствие взрослого
Качество: BDRemux 1080p
Формат: MKV
Видео кодек: AVC
Аудио кодек: AC3/DTS
Видео: AVC, 1920x1080 (16:9), 24843 kbps, 23,976 fps, 0,500 bpp
Аудио №1: русский / AC3 / 5.1 / 48 kHz / 384 kbps / 16 bit ||
Аудио №2: английский / DTS-HD / 5.1 / 48 kHz / 2049 kbps / 16 bit (Core: 5.1 / 48 kHz / 1510 kbps / 16 bit)

General
Unique ID : 212913877717125622047627105317165017206 (0xA02DB8A4F5F466D3B6B35CB9EB7D2876)
Complete name : D:ФильмыMy.Millery.Theatrical_Cut.2013.BDRemux.1080p.NNM-CLUB.mkv
Format : Matroska
Format version : Version 2
File size : 21.4 GiB
Duration : 1h 49mn
Overall bit rate mode : Variable
Overall bit rate : 27.8 Mbps
Movie name : My.Millery.Theatrical_Cut.2013.BDRemux.1080p.NNM-CLUB
Encoded date : UTC 2013-11-13 23:22:29
Writing application : mkvmerge v2.9.9 ('Tutu') built on Nov 25 2009 21:13:32
Writing library : libebml v0.7.9 + libmatroska v0.8.1

Video
ID : 1
Format : AVC
Format/Info : Advanced Video Codec
Format profile : High@L4.1
Format settings, CABAC : Yes
Format settings, ReFrames : 2 frames
Codec ID : V_MPEG4/ISO/AVC
Duration : 1h 49mn
Bit rate mode : Variable
Bit rate : 24.8 Mbps
Width : 1 920 pixels
Height : 1 080 pixels
Display aspect ratio : 16:9
Frame rate : 23.976 fps
Color space : YUV
Chroma subsampling : 4:2:0
Bit depth : 8 bits
Scan type : Progressive
Bits/(Pixel*Frame) : 0.500
Stream size : 19.1 GiB (89%)
Title : -=Release for NNM-CLUB.RU=-
Language : English
Default : No
Forced : No

Audio #1
ID : 2
Format : AC-3
Format/Info : Audio Coding 3
Mode extension : CM (complete main)
Codec ID : A_AC3
Duration : 1h 49mn
Bit rate mode : Constant
Bit rate : 384 Kbps
Channel(s) : 6 channels
Channel positions : Front: L C R, Side: L R, LFE
Sampling rate : 48.0 KHz
Bit depth : 16 bits
Compression mode : Lossy
Stream size : 302 MiB (1%)
Title : AC3.384Kbps (6ch) Russian (Дубляж)
Language : Russian
Default : Yes
Forced : No

Audio #2
ID : 3
Format : DTS
Format/Info : Digital Theater Systems
Format profile : MA / Core
Codec ID : A_DTS
Duration : 1h 49mn
Bit rate mode : Variable
Bit rate : 2 050 Kbps / 1 510 Kbps
Channel(s) : 6 channels
Channel positions : Front: L C R, Side: L R, LFE
Sampling rate : 48.0 KHz
Bit depth : 16 bits
Compression mode : Lossless / Lossy
Title : DTS-HD.MA.2182.kbps (6ch) English Lossless
Language : English
Default : No
Forced : No

Text #1
ID : 4
Format : UTF-8
Codec ID : S_TEXT/UTF8
Codec ID/Info : UTF-8 Plain Text
Title : English (SDH)
Language : English
Default : No
Forced : No

Text #2
ID : 5
Format : UTF-8
Codec ID : S_TEXT/UTF8
Codec ID/Info : UTF-8 Plain Text
Title : French (Full)
Language : French
Default : No
Forced : No

Text #3
ID : 6
Format : UTF-8
Codec ID : S_TEXT/UTF8
Codec ID/Info : UTF-8 Plain Text
Title : Portuguese - Brazilian (Full)
Language : Portuguese
Default : No
Forced : No

Text #4
ID : 7
Format : UTF-8
Codec ID : S_TEXT/UTF8
Codec ID/Info : UTF-8 Plain Text
Title : Portuguese - Brazilian (Forced)
Language : Portuguese
Default : No
Forced : No

Text #5
ID : 8
Format : UTF-8
Codec ID : S_TEXT/UTF8
Codec ID/Info : UTF-8 Plain Text
Title : Spanish Latin American (Full)
Language : Spanish
Default : No
Forced : No

Text #6
ID : 9
Format : UTF-8
Codec ID : S_TEXT/UTF8
Codec ID/Info : UTF-8 Plain Text
Title : Spanish Latin American (Forced)
Language : Spanish
Default : No
Forced : No

Menu
00:00:00.000 : en:Chapter 00
00:09:20.059 : en:Chapter 01
00:20:16.048 : en:Chapter 02
00:30:27.492 : en:Chapter 03
00:41:18.475 : en:Chapter 04
00:51:17.324 : en:Chapter 05
01:00:08.438 : en:Chapter 06
01:09:57.651 : en:Chapter 07
01:20:18.813 : en:Chapter 08
01:29:12.638 : en:Chapter 09
01:40:18.512 : en:Chapter 10
01:43:21.111 : en:Chapter 11
pb.wtf



Скачать Мы – Миллеры через торрент http://pic.kartinco.top/images/6/us6z2.jpg Скачать фильм Мы – Миллеры через торрент бесплантно в хорошем качестве Описание: Дэвид Берк - мелкий торговец наркотиками. Среди его клиентов - повара и скучающие домохозяйки. Детям он наркотики не продаёт и ... 9.5 10 8
Info! Золотая раздача, скачанное не засчитывается.
Торрент: Зарегистрирован [2013-11-16 00:10] · скачан: 202 раз
Статус: √ проверено
Размер: 21.36 GB
Как cкачать? Как скачать Мы – Миллеры через торрент | qTorrent

28-11-2019 20:33  

Отключить всю рекламу на сайте

16-11-2013 06:21 Мы – Миллеры Скачать торрент  

Фильм на один раз pb.wtf



17-11-2013 16:23 Мы – Миллеры Скачать торрент  

Разрешение экрана не 1920-1080 фуфло((pb.wtf



03-12-2013 14:10 Мы – Миллеры Скачать торрент  

Видимо у тебя с чувством юмора что то не так, наоборот фильм очень даже смешной, давно таких камедий не смотрел.pb.wtf



17-12-2013 14:58 Мы – Миллеры Скачать торрент  

дайте скорости??? pb.wtf



    Дорогой пользователь! Огромная просьба, поблагодарите релизера, оцените раздачу и оставьте свои комментарий, если Вы скачали Мы – Миллеры через торрент бесплатно! Внесите свою лепту в развитие PiratBit!
    Комментировать посты могут только пользователи прошедшие не сложную регистрацию
    Показать сообщения:    

    Мы – Миллеры через торрент
    Скачать бесплатно Мы – Миллеры
    Мы – Миллеры скачать торрент
    Мы – Миллеры смотреть онлайн
    Cкачать фильм Мы – Миллеры бесплатно
    Мы – Миллеры скачать торрент в хорошем качестве
    Мы – Миллеры смотреть онлайн бесплатно в хорошем качестве


    Вы не можете начинать темы
    Вы не можете отвечать на сообщения
    Вы не можете редактировать свои сообщения
    Вы не можете удалять свои сообщения
    Вы не можете голосовать в опросах
    Вы не можете прикреплять файлы к сообщениям
    Вы можете скачивать файлы