2 сезон

iTunes

1 сезон

1

iTunes

iTunes

iTunes

1 сезон

RePack

30

ИГРА 18+

pack

ВАЖНО

!!Акция!!

Alien_RageХит недели

RePack

MK11
pack

Забери бонус

RePack

jed

!!Акция!!

Alien_Rage

RePack

fifa19

RePack

Assassins Creed: Odyssey

RePack

NEED FOR SPEED™ PAYBACK

4 сезон

9 сезон

Бесстыжие 9 сезон

Все сериалы

все сериалы на PB.wtf

RePack

FAR CRY 5
  

Мы – Миллеры / We're the Millers (Роусон Маршалл Тёрбер) [2013 г., комедия, криминал, BDRip 1080p, Профессиональный многоголосый, [Baibako] [Extended Cut] pb.wtf

Мы – Миллеры через торрент pb.wtf

Размер: 9.03 GB | Добавлен: 6 лет 11 мес. назад | Торрент скачан:950 раз
Скачать  

07-11-2013 05:57 Мы – Миллеры Скачать торрент  

Мы – Миллеры / We're the Millers
Год выпуска: 2013
Страна: США / BenderSpink, New Line Cinema, Vincent Newman Entertainment
Жанр: комедия, криминал,
Продолжительность: 01:58:43
Перевод: Профессиональный многоголосый [Baibako]
Субтитры: Нет

Режиссер: Роусон Маршалл Тёрбер
Продюссер: Крис Бендер, Винсент Ньюман, Эдвард Пелле
Сценарий: Боб Фишер, Стив Фабер, Шон Андерс

Бюджет: $37 000 000
Премьера в мире: 3 августа 2013

IMDB 7.20 (66 665)


В ролях: Дженнифер Энистон, Джейсон Судейкис, Уилл Поултер, Эмма Робертс, Эд Хелмс, Ник Офферман, Кэтрин Хан, Молли С. Куинн, Томер Сисле, Мэттью Уиллиг,

Описание: Дэвид Берк — мелкий торговец наркотиками. Среди его клиентов — повара и скучающие домохозяйки. Детям он наркотики не продаёт и поэтому считает себя принципиальным человеком. Дэвид действительно хорошо относится к детям, но это не остается безнаказанным — он пытается помочь подросткам, попавшим в беду, и на него нападают хулиганы-панки. Они отбирают у него наркотики и деньги, и наш герой оказывается в отчаянном положении. Ведь ему нечем расплатиться с его поставщиком Брэдом. Единственный выход — подрядиться на доставку крупной партии наркотиков через границу...

Качество: BDRip 1080p
Формат: MKV
Видео кодек: AVC
Аудио кодек: DTS, AC3
Видео: MPEG-4 AVC, 8995 Кбит/с, 1920х798, 23.976 кадр/с
Аудио#1: Русский (AC3, 6 ch, 384 Кбит/с, 48.0 КГц, 16 бит)
Аудио#2: Английский (DTS, 6 ch, 1509 Кбит/с, 48.0 КГц, 24 бит)





Общее
Уникальный идентификатор : 217591941282910439656267731602870236882 (0xA3B2AEFC4EC849B8B27795A43ED9F6D2)
Полное имя : E:Were.the.Millers.2013.Extended.BluRay.1080p.DTS.x264-CHD.mkv
Формат : Matroska
Версия формата : Version 2
Размер файла : 9,03 Гбайт
Продолжительность : 1 ч. 58 м.
Общий поток : 10,9 Мбит/сек
Дата кодирования : UTC 2013-11-06 16:24:38
Программа кодирования : mkvmerge v6.3.0 ('You can't stop me!') built on Jun 28 2013 20:09:41
Библиотека кодирования : libebml v1.3.0 + libmatroska v1.4.0

Видео
Идентификатор : 1
Формат : AVC
Формат/Информация : Advanced Video Codec
Профиль формата : High@L4.1
Параметр CABAC формата : Да
Параметр ReFrames формата : 5 кадров
Идентификатор кодека : V_MPEG4/ISO/AVC
Продолжительность : 1 ч. 58 м.
Битрейт : 8995 Кбит/сек
Ширина : 1920 пикселей
Высота : 798 пикселей
Соотношение сторон : 2,40:1
Режим частоты кадров : Постоянный
Частота кадров : 23,976 кадра/сек
Цветовое пространство : YUV
Субдискретизация насыщенности : 4:2:0
Битовая глубина : 8 бит
Тип развёртки : Прогрессивная
Бит/(Пиксели*Кадры) : 0.245
Размер потока : 7,28 Гбайт (81%)
Библиотека кодирования : x264 core 138 r2356 a1d3d17
Настройки программы : cabac=1 / ref=5 / deblock=1:-3:-3 / analyse=0x3:0x113 / me=umh / subme=10 / psy=1 / psy_rd=1.00:0.05 / mixed_ref=1 / me_range=32 / chroma_me=1 / trellis=2 / 8x8dct=1 / cqm=0 / deadzone=21,11 / fast_pskip=0 / chroma_qp_offset=-2 / threads=18 / lookahead_threads=1 / sliced_threads=0 / nr=0 / decimate=1 / interlaced=0 / bluray_compat=0 / constrained_intra=0 / bframes=5 / b_pyramid=2 / b_adapt=2 / b_bias=0 / direct=3 / weightb=1 / open_gop=0 / weightp=2 / keyint=250 / keyint_min=23 / scenecut=40 / intra_refresh=0 / rc=2pass / mbtree=0 / bitrate=8995 / ratetol=1.0 / qcomp=0.70 / qpmin=0 / qpmax=69 / qpstep=4 / cplxblur=20.0 / qblur=0.5 / ip_ratio=1.40 / pb_ratio=1.30 / aq=2:1.00
Язык : English
Default : Да
Forced : Нет

Аудио #1
Идентификатор : 2
Формат : AC-3
Формат/Информация : Audio Coding 3
Расширение режима : CM (complete main)
Параметр Endianness формата : Big
Идентификатор кодека : A_AC3
Продолжительность : 1 ч. 58 м.
Вид битрейта : Постоянный
Битрейт : 384 Кбит/сек
Каналы : 6 каналов
Расположение каналов : Front: L C R, Side: L R, LFE
Частота : 48,0 КГц
Битовая глубина : 16 бит
Метод сжатия : С потерями
Размер потока : 326 Мбайт (4%)
Язык : Russian
Default : Да
Forced : Нет

Аудио #2
Идентификатор : 3
Формат : DTS
Формат/Информация : Digital Theater Systems
Режим : 16
Параметр Endianness формата : Big
Идентификатор кодека : A_DTS
Продолжительность : 1 ч. 58 м.
Вид битрейта : Постоянный
Битрейт : 1509 Кбит/сек
Каналы : 6 каналов
Расположение каналов : Front: L C R, Side: L R, LFE
Частота : 48,0 КГц
Битовая глубина : 24 бит
Метод сжатия : С потерями
Размер потока : 1,25 Гбайт (14%)
Язык : English
Default : Нет
Forced : Нет


Мы – Миллеры скачать торрент


pb.wtf



Скачать Мы – Миллеры через торрент http://pic.kartinco.top/images/6/c4mux.jpg Скачать фильм Мы – Миллеры через торрент бесплантно в хорошем качестве Описание: Дэвид Берк — мелкий торговец наркотиками. Среди его клиентов — повара и скучающие домохозяйки. Детям он наркотики не продаёт и ... 9.5 10 35
Info! Золотая раздача, скачанное не засчитывается.
Торрент: Зарегистрирован [2013-11-07 05:57] · скачан: 950 раз
Статус: √ проверено
Размер: 9.03 GB
Как cкачать? Как скачать Мы – Миллеры через торрент | qTorrent

28-11-2019 20:33  

Отключить всю рекламу на сайте

07-11-2013 11:55 Мы – Миллеры Скачать торрент  

говорят угарная комедия надо будет посмотреть спасибоpb.wtf



08-11-2013 12:40 Мы – Миллеры Скачать торрент  

Подскажите, когда будет оригинальная озвучка?pb.wtf



    Дорогой пользователь! Огромная просьба, поблагодарите релизера, оцените раздачу и оставьте свои комментарий, если Вы скачали Мы – Миллеры через торрент бесплатно! Внесите свою лепту в развитие PiratBit!
    Комментировать посты могут только пользователи прошедшие не сложную регистрацию
    Показать сообщения:    

    Мы – Миллеры через торрент
    Скачать бесплатно Мы – Миллеры
    Мы – Миллеры скачать торрент
    Мы – Миллеры смотреть онлайн
    Cкачать фильм Мы – Миллеры бесплатно
    Мы – Миллеры скачать торрент в хорошем качестве
    Мы – Миллеры смотреть онлайн бесплатно в хорошем качестве


    Вы не можете начинать темы
    Вы не можете отвечать на сообщения
    Вы не можете редактировать свои сообщения
    Вы не можете удалять свои сообщения
    Вы не можете голосовать в опросах
    Вы не можете прикреплять файлы к сообщениям
    Вы можете скачивать файлы