2 сезон

iTunes

1 сезон

1

iTunes

iTunes

iTunes

1 сезон

RePack

30

ИГРА 18+

pack

ВАЖНО

!!Акция!!

Alien_RageХит недели

RePack

MK11
pack

Забери бонус

RePack

jed

!!Акция!!

Alien_Rage

RePack

fifa19

RePack

Assassins Creed: Odyssey

RePack

NEED FOR SPEED™ PAYBACK

4 сезон

9 сезон

Бесстыжие 9 сезон

Все сериалы

все сериалы на PB.wtf

RePack

FAR CRY 5
  

Обливион / Oblivion (Джозеф Косински / Joseph Kosinski) [2013, США, фантастика, боевик, триллер, BDRip 720p, Дубляж|лицензия| ]+Оригинал pb.wtf

Обливион через торрент pb.wtf

Размер: 5.44 GB | Добавлен: 7 лет 2 мес. назад | Торрент скачан:936 раз
Скачать  

04-08-2013 15:31 Обливион Скачать торрент  

Обливион / Oblivion

«Earth is a memory worth fighting for.»

  • Год выпуска:2013
  • Страна:США
  • Жанр:фантастика, боевик, триллер, приключения, мелодрама
  • Продолжительность: 02:04:42
  • Перевод:Профессиональный (полное дублирование)|Лицензия|

  • Субтитры: Русские (форс. + полные), Английские | отключаемые, *.srt|
    • Режиссер:Джозеф Косински / Joseph Kosinski

  • В ролях:Том Круз (Jack), Ольга Куриленко (Julia), Андреа Райзборо (Victoria), Морган Фриман (Beech), Николай Костер-Вальдау (Sykes), Мелисса Лео (Sally), Зои Белл (Kara), Эбигейл Лоу (Julia's Child), Изабель Лоу (Julia's Child), Дэвид Мэдисон (Grow Hall Survivor), Джон Л. Армихо (NASA Ground Control, в титрах не указан), Филеена Барис (Survivor, в титрах не указана)
    • Описание:
      Земля, пережившая войну с инопланетными захватчиками, опустела; остатки человечества готовятся покинуть непригодную для жизни планету. Главный герой - техник по обслуживанию дронов - находит разбившийся корабль NASA, команда которого погибает у него на глазах. Ему удаётся спасти лишь одну женщину - и вскоре он понимает, что это перевернёт его жизнь.

  • Рейтинг
    kinopoisk.ru: 7.430 (41 257)
    imdb.com: 7.10 (111 674)
    MPAA: PG-13 - Детям до 13 лет просмотр не желателен
      Автор рипа: Vaippp
    • Качество:BDRip 720p
    • Формат:MKV
    • Видео кодек: AVC
    • Аудио кодек: AC3
    • Видео: AVC, 1280x536 (2.40:1), 5228 kbps, 23,976 fps, 0,318 bpp
    • Аудио №1: русский / AC3 / 5.1 / 48 kHz / 448 kbps / 16 bit ||
      Аудио №2: английский / AC3 / 5.1 / 48 kHz / 448 kbps / 16 bit


    General
    Unique ID : 211376201376680099660768222074438445421 (0x9F059358F6866064ABABCF0D5D34696D)
    Complete name : D:ТорентыOblivion.2013.DUAL.BDRip.720p.x264.AC3.-HQ-ViDEO.mkv
    Format : Matroska
    Format version : Version 2
    File size : 5.44 GiB
    Duration : 2h 4mn
    Overall bit rate : 6 249 Kbps
    Movie name : Oblivion (2013) - HQ-ViDEO
    Encoded date : UTC 2013-08-04 12:55:23
    Writing application : mkvmerge v6.3.0 ('You can't stop me!') built on Jun 28 2013 20:09:41
    Writing library : libebml v1.3.0 + libmatroska v1.4.0

    Video
    ID : 1
    Format : AVC
    Format/Info : Advanced Video Codec
    Format profile : High@L4.1
    Format settings, CABAC : Yes
    Format settings, ReFrames : 12 frames
    Codec ID : V_MPEG4/ISO/AVC
    Duration : 2h 4mn
    Bit rate : 5 228 Kbps
    Width : 1 280 pixels
    Height : 536 pixels
    Display aspect ratio : 2.40:1
    Frame rate : 23.976 fps
    Color space : YUV
    Chroma subsampling : 4:2:0
    Bit depth : 8 bits
    Scan type : Progressive
    Bits/(Pixel*Frame) : 0.318
    Stream size : 4.55 GiB (84%)
    Title : Vaippp @ 5350 Kbps
    Writing library : x264 core 135 r2345 f0c1c53
    Encoding settings : cabac=1 / ref=12 / deblock=1:-3:-3 / analyse=0x3:0x133 / me=tesa / subme=11 / psy=1 / psy_rd=0.95:0.00 / mixed_ref=1 / me_range=24 / chroma_me=1 / trellis=2 / 8x8dct=1 / cqm=0 / deadzone=21,11 / fast_pskip=1 / chroma_qp_offset=-2 / threads=12 / lookahead_threads=2 / sliced_threads=0 / nr=0 / decimate=1 / interlaced=0 / bluray_compat=0 / constrained_intra=0 / bframes=9 / b_pyramid=2 / b_adapt=2 / b_bias=0 / direct=1 / weightb=1 / open_gop=0 / weightp=2 / keyint=240 / keyint_min=22 / scenecut=40 / intra_refresh=0 / rc_lookahead=60 / rc=crf / mbtree=0 / crf=16.1 / qcomp=0.80 / qpmin=0 / qpmax=69 / qpstep=4 / vbv_maxrate=62500 / vbv_bufsize=78125 / crf_max=0.0 / nal_hrd=none / ip_ratio=1.40 / pb_ratio=1.30 / aq=1:0.85
    Language : English
    Default : Yes
    Forced : No
    Color primaries : BT.709-5, BT.1361, IEC 61966-2-4, SMPTE RP177
    Transfer characteristics : BT.709-5, BT.1361
    Matrix coefficients : BT.709-5, BT.1361, IEC 61966-2-4 709, SMPTE RP177

    Audio #1
    ID : 2
    Format : AC-3
    Format/Info : Audio Coding 3
    Mode extension : CM (complete main)
    Codec ID : A_AC3
    Duration : 2h 4mn
    Bit rate mode : Constant
    Bit rate : 448 Kbps
    Channel(s) : 6 channels
    Channel positions : Front: L C R, Side: L R, LFE
    Sampling rate : 48.0 KHz
    Bit depth : 16 bits
    Compression mode : Lossy
    Stream size : 400 MiB (7%)
    Title : AC3 DD 5.1 @ 448 Kbps DUB - Blu-Ray CEE
    Language : Russian
    Default : Yes
    Forced : Yes

    Audio #2
    ID : 3
    Format : AC-3
    Format/Info : Audio Coding 3
    Mode extension : CM (complete main)
    Codec ID : A_AC3
    Duration : 2h 4mn
    Bit rate mode : Constant
    Bit rate : 448 Kbps
    Channel(s) : 6 channels
    Channel positions : Front: L C R, Side: L R, LFE
    Sampling rate : 48.0 KHz
    Bit depth : 16 bits
    Compression mode : Lossy
    Stream size : 400 MiB (7%)
    Title : AC3 DD 5.1 @ 448 Kbps Original - Blu-Ray US
    Language : English
    Default : No
    Forced : No

    Text #1
    ID : 4
    Format : UTF-8
    Codec ID : S_TEXT/UTF8
    Codec ID/Info : UTF-8 Plain Text
    Title : Forced
    Language : Russian
    Default : Yes
    Forced : Yes

    Text #2
    ID : 5
    Format : UTF-8
    Codec ID : S_TEXT/UTF8
    Codec ID/Info : UTF-8 Plain Text
    Title : Full
    Language : Russian
    Default : No
    Forced : No

    Text #3
    ID : 6
    Format : UTF-8
    Codec ID : S_TEXT/UTF8
    Codec ID/Info : UTF-8 Plain Text
    Language : English
    Default : No
    Forced : No

    Menu
    00:00:00.000 : en:Chapter 01
    00:04:31.354 : en:Chapter 02
    00:12:51.812 : en:Chapter 03
    00:21:25.284 : en:Chapter 04
    00:27:20.138 : en:Chapter 05
    00:35:30.336 : en:Chapter 06
    00:40:06.779 : en:Chapter 07
    00:46:16.023 : en:Chapter 08
    00:52:22.180 : en:Chapter 09
    01:01:59.716 : en:Chapter 10
    01:07:59.408 : en:Chapter 11
    01:16:25.831 : en:Chapter 12
    01:22:08.173 : en:Chapter 13
    01:25:31.751 : en:Chapter 14
    01:30:22.542 : en:Chapter 15
    01:36:30.367 : en:Chapter 16
    01:40:29.106 : en:Chapter 17
    01:46:27.422 : en:Chapter 18
    01:53:05.320 : en:Chapter 19
    01:58:23.846 : en:Chapter 20


    © Оформление by Vetalpb.wtf



  • Скачать Обливион через торрент http://i3.imageban.ru/out/2013/08/04/cbdf192f4e02eaf2d3c6fbab6478de7e.png Скачать фильм Обливион через торрент бесплантно в хорошем качестве Описание:Земля, пережившая войну с инопланетными захватчиками, опустела; остатки человечества готовятся покинуть непригодную для жизни ... 9.6 10 24
    Info! Золотая раздача, скачанное не засчитывается.
    Торрент: Зарегистрирован [2013-08-04 15:31] · скачан: 936 раз
    Статус: √ проверено
    Размер: 5.44 GB
    Как cкачать? Как скачать Обливион через торрент | qTorrent

    28-11-2019 20:33  

    Отключить всю рекламу на сайте

      Дорогой пользователь! Огромная просьба, поблагодарите релизера, оцените раздачу и оставьте свои комментарий, если Вы скачали Обливион через торрент бесплатно! Внесите свою лепту в развитие PiratBit!
      Комментировать посты могут только пользователи прошедшие не сложную регистрацию
      Показать сообщения:    

      Обливион через торрент
      Скачать бесплатно Обливион
      Обливион скачать торрент
      Обливион смотреть онлайн
      Cкачать фильм Обливион бесплатно
      Обливион скачать торрент в хорошем качестве
      Обливион смотреть онлайн бесплатно в хорошем качестве


      Вы не можете начинать темы
      Вы не можете отвечать на сообщения
      Вы не можете редактировать свои сообщения
      Вы не можете удалять свои сообщения
      Вы не можете голосовать в опросах
      Вы не можете прикреплять файлы к сообщениям
      Вы можете скачивать файлы