Всегда рабочее зеркало без VPN и Proxy просто перед .vidak.icu напиши любое слово или цифру, Пример http://c2fa.vidak.icu

MVO

Лицензия

1 сезон

1

1 сезон

iTunes

1 сезон

13

1 сезон

Deluxe

pack

Рекомендуем

Пиратка

30

ВАЖНО

RePack

MK11

RePack

jed

RePack

fifa19

RePack

RDR2

RePack

NEED FOR SPEED™ PAYBACK

Кинопоиск HD

6 сезон

 Острые козырьки 6 сезон

Все сериалы

все сериалы на PB.wtf

RePack

FAR CRY 5
  
Magnet ссылка

Обливион / Oblivion (Джозеф Косински / Joseph Kosinski) [2013, США, фантастика, HDRip-AVC] Dub / лицензия! pb.wtf

Обливион через торрент pb.wtf

Раздают: 1 [ 0 KB/s ]
Размер: 2.71 GB | Добавлен: 8 лет 10 мес. назад | Торрент скачан:2630 раз
Смотреть онлайн Обливион | Скачать    Ребята, помогите собрать деньги на оплату серверов!!!

05-08-2013 06:02 Обливион Скачать торрент  


«Earth is a memory worth fighting for.»


  • Год выпуска: 2013
  • Выпущено: США
  • Жанр: фантастика
  • Продолжительность: 02:04:38
  • Перевод: Профессиональный (полное дублирование) | Лицензия!
  • Субтитры: Русские, английские |отключаемые|

  • Режиссер:
    Джозеф Косински / Joseph Kosinski

  • В ролях:
    Том Круз, Ольга Куриленко, Морган Фриман, Андреа Райзборо, Николай Костер-Вальдау, Мелисса Лео, Зои Белл, Эбигейл Лоу, Изабель Лоу, Дэвид Мэдисон

  • Описание:
    После атомной войны с искуственным интеллектом Земля стала контролируемой территорией. Дроны и обслуживающий персонал - клоны с заданной памятью под контролем системы добивают оставшихся жителей планеты. Однажды разум одного работника просыпается и он понимает что является инструментом системы в войне против людей.


  • Тип релиза: HDRip-AVC
  • Формат: MKV
  • Видео кодек: AVC
  • Аудио кодек: AC3
  • Видео: MPEG-4 AVC, 2210 Кбит/с, 1024x432, 23.976 кадр/с
  • Аудио 1: 48 kHz, AC3 Dolby Digital, 3/2 (L,C,R,l,r) + LFE ch, 448.00 kbps | RUS
  • Аудио 2: 48 kHz, AC3 Dolby Digital, 3/2 (L,C,R,l,r) + LFE ch, 448.00 kbps | ENG


Формат : Matroska
Размер файла : 2,71 Гбайт
Продолжительность : 2 ч. 4 м.
Общий поток : 3108 Кбит/сек
Название фильма : Обливион. 2013. Rip by: ollan
Дата кодирования : UTC 2013-08-04 13:38:28
Программа кодирования : mkvmerge v5.6.0 ('Kenya Kane') built on May 27 2012 16:44:04
Библиотека кодирования : libebml v1.2.3 + libmatroska v1.3.0

Видео
Идентификатор : 1
Формат : AVC
Формат/Информация : Advanced Video Codec
Профиль формата : High@L4.1
Параметр CABAC формата : Да
Параметр ReFrames формата : 9 кадров
Режим смешивания : Container profile=Unknown@4.1
Идентификатор кодека : V_MPEG4/ISO/AVC
Продолжительность : 2 ч. 4 м.
Битрейт : 2150 Кбит/сек
Номинальный битрейт : 2210 Кбит/сек
Ширина : 1024 пикселей
Высота : 432 пикселей
Соотношение сторон : 2,35:1
Частота кадров : 23,976 кадра/сек
Разрешение : 24 бит
Колориметрия : 4:2:0
Тип развёртки : Прогрессивная
Бит/(Пиксели*Кадры) : 0.203
Размер потока : 1,87 Гбайт (69%)
Библиотека кодирования : x264 core 125 r2200 999b753
Настройки программы : cabac=1 / ref=9 / deblock=1:-2:-2 / analyse=0x3:0x133 / me=umh / subme=11 / psy=1 / psy_rd=1.00:0.00 / mixed_ref=1 / me_range=32 / chroma_me=1 / trellis=2 / 8x8dct=1 / cqm=0 / deadzone=21,11 / fast_pskip=0 / chroma_qp_offset=-2 / threads=12 / lookahead_threads=2 / sliced_threads=0 / nr=0 / decimate=0 / interlaced=0 / bluray_compat=0 / constrained_intra=0 / bframes=9 / b_pyramid=2 / b_adapt=1 / b_bias=0 / direct=3 / weightb=1 / open_gop=0 / weightp=2 / keyint=240 / keyint_min=23 / scenecut=40 / intra_refresh=0 / rc_lookahead=80 / rc=2pass / mbtree=1 / bitrate=2210 / ratetol=1.0 / qcomp=0.60 / qpmin=0 / qpmax=69 / qpstep=4 / cplxblur=20.0 / qblur=0.5 / ip_ratio=1.40 / aq=1:1.00

Аудио #1
Идентификатор : 2
Формат : AC-3
Формат/Информация : Audio Coding 3
Идентификатор кодека : A_AC3
Продолжительность : 2 ч. 4 м.
Вид битрейта : Постоянный
Битрейт : 448 Кбит/сек
Каналы : 6 каналов
Расположение каналов : Front: L C R, Surround: L R, LFE
Частота : 48,0 КГц
Размер потока : 400 Мбайт (14%)
Заголовок : Дублированный (Лицензия)
Язык : Russian

Аудио #2
Идентификатор : 3
Формат : AC-3
Формат/Информация : Audio Coding 3
Идентификатор кодека : A_AC3
Продолжительность : 2 ч. 4 м.
Вид битрейта : Постоянный
Битрейт : 448 Кбит/сек
Каналы : 6 каналов
Расположение каналов : Front: L C R, Surround: L R, LFE
Частота : 48,0 КГц
Размер потока : 400 Мбайт (14%)

Текст #1
Идентификатор : 4
Формат : UTF-8
Идентификатор кодека : S_TEXT/UTF8
Идентификатор кодека/Информация : UTF-8 Plain Text
Заголовок : Voronine
Язык : Russian

Текст #2
Идентификатор : 5
Формат : UTF-8
Идентификатор кодека : S_TEXT/UTF8
Идентификатор кодека/Информация : UTF-8 Plain Text[/code]


pb.wtf



Скачать Обливион через торрент http://i48.fastpic.ru/big/2013/0412/e6/0a4803084819fe8bb3633ba72dca1ae6.png Скачать, смотреть онлайн Обливион бесплантно в хорошем качестве Описание:После атомной войны с искуственным интеллектом Земля стала контролируемой территорией. Дроны и обслуживающий персонал - клоны с ... 9.4 10 54
Info! Золотая раздача, скачанное не засчитывается.
Торрент: Зарегистрирован [2013-08-05 06:02] · скачан: 2 630 раз
Статус: √ проверено
Размер: 2.71 GB
Как cкачать? Как скачать Обливион через торрент | UTorrent

% Раздел Тема Автор DL S | L
Ultra HD (UHD: 2K, 4K, 8K) — видео сверхвысокой чёткости [ 61.77 GB ] Обливион / Oblivion [2013 антиутопия постапокалипсис UHD BDRemux 2160p] [] DUB+2xAVO bober100 Скачать
1 | 0
Ultra HD (UHD: 2K, 4K, 8K) — видео сверхвысокой чёткости [ 53.3 GB ] Обливион / Oblivion [2013 UHDWEBRip 2160p] [] killermax2013 Скачать
1 | 0
Фильмы [HD 720p, 1080p] (Хороший звук DUB, MVO) [ 5.37 GB ] Обливион / Oblivion [2013 BDRip 720p] DUB potroks Скачать
1 | 0

28-11-2019 20:33  

Отключить всю рекламу на сайте

08-08-2013 18:44 Обливион Скачать торрент  

Очень хороший , и достаточно оригинальный фильм. Качественный и смысловой "Сюжет". Отличные актеры ( Том Круз в свои 51 , выглядит Отлично!)
Вообщем, качайте. Время зря не потеряете.
Автору, большое спасибо, качество - Зачет.pb.wtf



10-08-2013 11:03 Обливион Скачать торрент  

Отличный фильм, Круз на высоте, неожиданный финал!!!pb.wtf



25-12-2013 07:05 Обливион Скачать торрент  

Классный фильм, мне очень понравился...концовка действительно необычная...побольше бы таких фильмов снимали...pb.wtf



25-12-2013 10:18 Обливион Скачать торрент  

Согласен , фильм посмотреть стоит .pb.wtf



    Дорогой пользователь! Огромная просьба, поблагодарите релизера, оцените раздачу и оставьте свои комментарий, если Вы скачали Обливион через торрент бесплатно!
    Комментировать посты могут только пользователи прошедшие не сложную регистрацию
    Показать сообщения:    

    Обливион через торрент
    Скачать бесплатно Обливион
    Обливион скачать торрент
    Обливион смотреть онлайн
    Cкачать фильм Обливион бесплатно
    Обливион скачать торрент в хорошем качестве
    Обливион смотреть онлайн бесплатно в хорошем качестве


    Вы не можете начинать темы
    Вы не можете отвечать на сообщения
    Вы не можете редактировать свои сообщения
    Вы не можете удалять свои сообщения
    Вы не можете голосовать в опросах
    Вы не можете прикреплять файлы к сообщениям
    Вы можете скачивать файлы