1 сезон

3 сезон

iTunes

1

iTunes

MVO

iTunes

13

1 сезон

RePack

30

Deluxe

pack

Лицензия

ВАЖНО

ИГРА 18+

pack

RePack

MK11

RePack

jed

RePack

fifa19

RePack

RDR2

RePack

NEED FOR SPEED™ PAYBACK

4 сезон

9 сезон

Бесстыжие 9 сезон

Все сериалы

все сериалы на PB.wtf

RePack

FAR CRY 5

Anonymous, добрый вечер, мы катастрофически не успеваем собрать деньги на оплату серверов, помогите нам пожалуйста 5,10,15р., для нас важна любая помощь . В качестве благодарности мы отключим Вам всю рекламу на сайте (укажите свой ник в строку Ваше имя)!

×
  
Magnet ссылка

Обливион / Oblivion (Джозеф Косински / Joseph Kosinski) [2013, фантастика, боевик, триллер, приключения, мелодрама, DVD9] R5 pb.wtf

Обливион через торрент pb.wtf

Размер: 7.28 GB | Добавлен: 7 лет 10 мес. назад | Торрент скачан:88 раз
Скачать  

05-09-2013 10:18 Обливион Скачать торрент  


Обливион / Oblivion
«Earth is a memory worth fighting for.»
Страна: США
Студия: Chernin Entertainment, Ironhead Studios, СПАМ Pictures, СПАМ Studios, Truenorth Productions, Universal Pictures
Жанр: фантастика, боевик, триллер, приключения, мелодрама
Год выпуска: 2013
Мировая премьера: 10 апреля 2013
Российская премьера: 11 апреля 2013
Украинская премьера: 11 апреля 2013
Дата выхода DVD: 22 августа 2013
Дата выхода Blu-Ray: 22 августа 2013
Продолжительность: 01:59:32
Перевод: Профессиональный (дублированный) [Лицензия]
Cубтитры: русские, английские, немецкие, турецкие, болгарские, греческие, эстонские, латышские, литовские
Оригинальная аудиодорожка: английский
Режиссер: Джозеф Косински / Joseph Kosinski
В ролях: Том Круз, Ольга Куриленко, Андреа Райзборо, Морган Фриман, Николай Костер-Вальдау, Мелисса Лео, Зои Белл, Эбигейл Лоу, Изабель Лоу, Дэвид Мэдисон
Описание: Земля, пережившая войну с инопланетными захватчиками, опустела; остатки человечества готовятся покинуть непригодную для жизни планету. Главный герой — техник по обслуживанию дронов — находит разбившийся корабль NASA, команда которого погибает у него на глазах. Ему удаётся спасти лишь одну женщину — и вскоре он понимает, что это перевернёт его жизнь.
Бонусы: нет

Релиз группы:
Качество: DVD9 R5
Формат: DVD-Video
Видео кодек: MPEG2
Аудио кодек: AC3
Видео: PAL 16:9 (720x576(0.620)) MPEG Video, 25,000 кадр/сек, 6430 Кбит/сек
Аудио #1: English (Dolby AC3, 6 ch) 384 Кбит/сек, 48,0 КГц
Аудио #2: Deutsch (Dolby AC3, 6 ch) 384 Кбит/сек, 48,0 КГц
Аудио #3: Russian (Dolby AC3, 6 ch) 384 Кбит/сек, 48,0 КГц
Аудио #4: Turkish (Dolby AC3, 6 ch) 384 Кбит/сек, 48,0 КГц



Title: Oblivion.2013.DVD9
Size: 7.28 Gb ( 7 629 886,00 KBytes ) - DVD-9
Enabled regions: 1, 2, 3, 4, 5, 6, 7, 8

VTS_01 :
Play Length: 00:00:25
Video: PAL 16:9 (720x576) VBR, Auto Letterboxed
Audio:
English (Dolby AC3, 6 ch)

VTS_02 :
Play Length: 00:00:14
Video: PAL 16:9 (720x576) VBR, Auto Letterboxed
Audio:
English (Dolby AC3, 6 ch)

VTS_03 :
Play Length: 00:00:00
Video: PAL 16:9 (720x576) VBR, Auto Letterboxed

VTS_04 :
Play Length: 01:59:32
Video: PAL 16:9 (720x576) VBR, Auto Letterboxed
Audio:
English (Dolby AC3, 6 ch)
Deutsch (Dolby AC3, 6 ch)
Russian (Dolby AC3, 6 ch)
Turkish (Dolby AC3, 6 ch)
Subtitles:
English
Deutsch
Russian
Turkish
Bulgarian
Greek
Estonian
Latvian
Lithuanian
Deutsch
Russian
Turkish

VTS_05 :
Play Length: 00:01:01 00:02:24 00:01:38 00:01:01
Video: PAL 16:9 (720x576) VBR, Auto Letterboxed
Audio:
English (Dolby AC3, 2 ch)
Subtitles:
English
Deutsch
Russian
Turkish
Bulgarian
Greek

VTS_06 :
Play Length: 00:00:08 00:00:08 00:00:08
Video: PAL 16:9 (720x576) VBR, Auto Letterboxed
Audio:
English (Dolby AC3, 2 ch)

* Menus Information *

VIDEO_TS Menu
Video:
PAL 16:9 (720x576) VBR
Auto Pan &Scan
English Language Unit :
Title Menu

VTS_01 Menu
Video:
NTSC 4:3 (720x480) VBR
Auto Pan &Scan, Auto Letterboxed
English Language Unit :
Root Menu

VTS_02 Menu
Video:
NTSC 4:3 (720x480) VBR
Auto Pan &Scan, Auto Letterboxed
English Language Unit :
Root Menu

VTS_03 Menu
Video:
NTSC 4:3 (720x480) VBR
Auto Pan &Scan, Auto Letterboxed
English Language Unit :
Root Menu

VTS_04 Menu
Video:
PAL 16:9 (720x576) VBR
Auto Letterboxed
Audio:
Not specified (Dolby AC3, 2 ch)
English Language Unit :
Root Menu
Subpicture Menu
Audio Menu
Angle menu
Chapter (PTT) Menu

VTS_05 Menu
Video:
NTSC 4:3 (720x480) VBR
Auto Pan &Scan, Auto Letterboxed
English Language Unit :
Root Menu

VTS_06 Menu
Video:
NTSC 4:3 (720x480) VBR
Auto Pan &Scan, Auto Letterboxed
English Language Unit :
Root Menu
Общее
Полное имя : M:Новинки 2013Oblivion.2013.DVD9VIDEO_TSVTS_04_2.VOB
Формат : MPEG-PS
Размер файла : 1024 Мбайт
Продолжительность : 17 м.
Режим общего битрейта : Переменный
Общий поток : 8127 Кбит/сек

Видео
Идентификатор : 224 (0xE0)
Формат : MPEG Video
Версия формата : Version 2
Профиль формата : Main@Main
Параметр BVOP формата : Да
Параметр матрицы формата : Выборочная
Параметр GOP формата : Variable
Продолжительность : 17 м.
Вид битрейта : Переменный
Битрейт : 6430 Кбит/сек
Максимальный битрейт : 9800 Кбит/сек
Ширина : 720 пикселей
Высота : 576 пикселей
Соотношение сторон : 16:9
Частота кадров : 25,000 кадров/сек
Стандарт вещания : PAL
Цветовое пространство : YUV
Субдискретизация насыщенности : 4:2:0
Битовая глубина : 8 бит
Тип развёртки : Чересстрочная
Порядок развёртки : Верхнее поле первое
Метод сжатия : С потерями
Бит/(Пиксели*Кадры) : 0.620
TimeCode_FirstFrame : 01:17:50:16
TimeCode_Source : Group of pictures header
Размер потока : 810 Мбайт (79%)

Аудио #1
Идентификатор : 189 (0xBD)-128 (0x80)
Формат : AC-3
Формат/Информация : Audio Coding 3
Расширение режима : CM (complete main)
Параметр Endianness формата : Big
Режим смешивания : DVD-Video
Продолжительность : 17 м.
Вид битрейта : Постоянный
Битрейт : 384 Кбит/сек
Каналы : 6 каналов
Расположение каналов : Front: L C R, Side: L R, LFE
Частота : 48,0 КГц
Битовая глубина : 16 бит
Метод сжатия : С потерями
Задержка видео : -584 мс.
Размер потока : 48,4 Мбайт (5%)

Аудио #2
Идентификатор : 189 (0xBD)-129 (0x81)
Формат : AC-3
Формат/Информация : Audio Coding 3
Расширение режима : CM (complete main)
Параметр Endianness формата : Big
Режим смешивания : DVD-Video
Продолжительность : 17 м.
Вид битрейта : Постоянный
Битрейт : 384 Кбит/сек
Каналы : 6 каналов
Расположение каналов : Front: L C R, Side: L R, LFE
Частота : 48,0 КГц
Битовая глубина : 16 бит
Метод сжатия : С потерями
Задержка видео : -584 мс.
Размер потока : 48,4 Мбайт (5%)

Аудио #3
Идентификатор : 189 (0xBD)-130 (0x82)
Формат : AC-3
Формат/Информация : Audio Coding 3
Расширение режима : CM (complete main)
Параметр Endianness формата : Big
Режим смешивания : DVD-Video
Продолжительность : 17 м.
Вид битрейта : Постоянный
Битрейт : 384 Кбит/сек
Каналы : 6 каналов
Расположение каналов : Front: L C R, Side: L R, LFE
Частота : 48,0 КГц
Битовая глубина : 16 бит
Метод сжатия : С потерями
Задержка видео : -584 мс.
Размер потока : 48,4 Мбайт (5%)

Аудио #4
Идентификатор : 189 (0xBD)-131 (0x83)
Формат : AC-3
Формат/Информация : Audio Coding 3
Расширение режима : CM (complete main)
Параметр Endianness формата : Big
Режим смешивания : DVD-Video
Продолжительность : 17 м.
Вид битрейта : Постоянный
Битрейт : 384 Кбит/сек
Каналы : 6 каналов
Расположение каналов : Front: L C R, Side: L R, LFE
Частота : 48,0 КГц
Битовая глубина : 16 бит
Метод сжатия : С потерями
Задержка видео : -584 мс.
Размер потока : 48,4 Мбайт (5%)

Текст #1
Идентификатор : 189 (0xBD)-32 (0x20)
Формат : RLE
Формат/Информация : Run-length encoding
Режим смешивания : DVD-Video

Текст #2
Идентификатор : 189 (0xBD)-33 (0x21)
Формат : RLE
Формат/Информация : Run-length encoding
Режим смешивания : DVD-Video

Текст #3
Идентификатор : 189 (0xBD)-34 (0x22)
Формат : RLE
Формат/Информация : Run-length encoding
Режим смешивания : DVD-Video

Текст #4
Идентификатор : 189 (0xBD)-35 (0x23)
Формат : RLE
Формат/Информация : Run-length encoding
Режим смешивания : DVD-Video

Текст #5
Идентификатор : 189 (0xBD)-36 (0x24)
Формат : RLE
Формат/Информация : Run-length encoding
Режим смешивания : DVD-Video

Текст #6
Идентификатор : 189 (0xBD)-37 (0x25)
Формат : RLE
Формат/Информация : Run-length encoding
Режим смешивания : DVD-Video

Текст #7
Идентификатор : 189 (0xBD)-38 (0x26)
Формат : RLE
Формат/Информация : Run-length encoding
Режим смешивания : DVD-Video

Текст #8
Идентификатор : 189 (0xBD)-39 (0x27)
Формат : RLE
Формат/Информация : Run-length encoding
Режим смешивания : DVD-Video

Текст #9
Идентификатор : 189 (0xBD)-40 (0x28)
Формат : RLE
Формат/Информация : Run-length encoding
Режим смешивания : DVD-Video










pb.wtf



Скачать Обливион через торрент http://i57.fastpic.ru/big/2013/0905/e2/307a6bff465feb964e64a38599b395e2.jpg Скачать фильм Обливион через торрент бесплантно в хорошем качестве Описание: Земля, пережившая войну с инопланетными захватчиками, опустела; остатки человечества готовятся покинуть непригодную для жизни ... 8 10 9
Info! Золотая раздача, скачанное не засчитывается.
Торрент: Зарегистрирован [2013-09-05 10:18] · скачан: 88 раз
Статус: √ проверено
Размер: 7.28 GB
Как cкачать? Как скачать Обливион через торрент | UTorrent

28-11-2019 20:33  

Отключить всю рекламу на сайте

    Дорогой пользователь! Огромная просьба, поблагодарите релизера, оцените раздачу и оставьте свои комментарий, если Вы скачали Обливион через торрент бесплатно! Внесите свою лепту в развитие PiratBit!
    Комментировать посты могут только пользователи прошедшие не сложную регистрацию
    Показать сообщения:    

    Обливион через торрент
    Скачать бесплатно Обливион
    Обливион скачать торрент
    Обливион смотреть онлайн
    Cкачать фильм Обливион бесплатно
    Обливион скачать торрент в хорошем качестве
    Обливион смотреть онлайн бесплатно в хорошем качестве


    Вы не можете начинать темы
    Вы не можете отвечать на сообщения
    Вы не можете редактировать свои сообщения
    Вы не можете удалять свои сообщения
    Вы не можете голосовать в опросах
    Вы не можете прикреплять файлы к сообщениям
    Вы можете скачивать файлы