Ссылка на приватное зеркало нашего сайта всего за 1$. Внимание количество ограничено!!!

2 сезон

iTunes

1 сезон

1

iTunes

iTunes

iTunes

1 сезон

RePack

30

ИГРА 18+

pack

ВАЖНО

!!Акция!!

Alien_RageХит недели

RePack

MK11
pack

Забери бонус

RePack

jed

!!Акция!!

Alien_Rage

RePack

fifa19

RePack

Assassins Creed: Odyssey

RePack

NEED FOR SPEED™ PAYBACK

4 сезон

9 сезон

Бесстыжие 9 сезон

Все сериалы

все сериалы на PB.wtf

RePack

FAR CRY 5
  

Одноклассники 2 / Grown Ups 2 (Деннис Дуган / Dennis Dugan) [ 2013 , США , комедия , BDRip 720p, Дубляж][Цифровая лицензия/iTunes] pb.wtf

Одноклассники 2 через торрент pb.wtf

Размер: 3.77 GB | Добавлен: 6 лет 11 мес. назад | Торрент скачан:672 раза
Скачать  

05-11-2013 20:41 Одноклассники 2 Скачать торрент  

Одноклассники 2 / Grown Ups 2Год выпуска: 2013
Страна: США
Жанр: комедия

Продолжительность: 01:40:58
Перевод: Дубляж[Цифровая лицензия/iTunes]
Субтитры: Aнглийские
Режиссер: Деннис Дуган / Dennis Dugan
В ролях: Адам Сэндлер (Lenny Feder), Кевин Джеймс (Eric Lamonsoff), Крис Рок (Kurt McKenzie), Дэвид Спейд (Marcus Higgins), Сальма Хайек (Roxanne Chase-Feder), Майя Рудольф (Deanne McKenzie), Мария Белло (Sally Lamonsoff), Ник Свардсон (Nick), Александр Людвиг (Braden), Колин Куинн (Dickie Bailey), Стив Бушеми (Wiley), Тэйлор Лотнер (Frat Boy Andy, в титрах не указан)
Описание: После того как Ленни Федер переезжает с семьей обратно в родной город, он и его друзья извлекут немало уроков, когда их дети окончат школу...
Рейтинг
kinopoisk.ru: 6.033 (14 032)
imdb.com: 5.20 (33 446)
MPAA: PG-13 - Детям до 13 лет просмотр не желателен
Качество: BDRip 720p
Формат: MKV
Видео кодек:AVC
Аудио кодек: AC3
Видео: AVC, 1280x690 (1.855), 4852 kbps, 23,976 fps, 0,229 bpp
Аудио: русский / AC3 / 5.1 / 48 kHz / 384 kbps / 16 bit ||

General
Unique ID : 188071191855457856232904100258521952726 (0x8D7D31AA730F9E76DA7D53C0392A31D6)
Complete name : D:Grown Ups 2.2013.720p.x264-LEONARDO_[scarabey.org].mkv
Format : Matroska
Format version : Version 2
File size : 3.77 GiB
Duration : 1h 40mn
Overall bit rate : 5 343 Kbps
Movie name : -=LEONARDO=-
Encoded date : UTC 2013-11-05 08:28:39
Writing application : mkvmerge v5.0.1 ('Es ist Sommer') built on Oct 23 2011 00:46:40
Writing library : libebml v1.2.2 + libmatroska v1.3.0

Video
ID : 1
Format : AVC
Format/Info : Advanced Video Codec
Format profile : High@L4.1
Format settings, CABAC : Yes
Format settings, ReFrames : 8 frames
Codec ID : V_MPEG4/ISO/AVC
Duration : 1h 40mn
Bit rate : 4 853 Kbps
Width : 1 280 pixels
Height : 690 pixels
Display aspect ratio : 1.855
Frame rate : 23.976 fps
Color space : YUV
Chroma subsampling : 4:2:0
Bit depth : 8 bits
Scan type : Progressive
Bits/(Pixel*Frame) : 0.229
Stream size : 3.42 GiB (91%)
Writing library : x264 core 125 r2208 d9d2288
Encoding settings : cabac=1 / ref=8 / deblock=1:-3:-3 / analyse=0x3:0x133 / me=umh / subme=11 / psy=1 / psy_rd=1.00:0.05 / mixed_ref=1 / me_range=48 / chroma_me=1 / trellis=2 / 8x8dct=1 / cqm=0 / deadzone=21,11 / fast_pskip=0 / chroma_qp_offset=-3 / threads=12 / lookahead_threads=2 / sliced_threads=0 / nr=0 / decimate=1 / interlaced=0 / bluray_compat=0 / constrained_intra=0 / bframes=8 / b_pyramid=2 / b_adapt=2 / b_bias=0 / direct=1 / weightb=1 / open_gop=0 / weightp=2 / keyint=250 / keyint_min=23 / scenecut=40 / intra_refresh=0 / rc=crf / mbtree=0 / crf=17.5 / qcomp=0.60 / qpmin=0 / qpmax=69 / qpstep=4 / ip_ratio=1.40 / pb_ratio=1.20 / aq=2:1.00
Language : English
Default : Yes
Forced : No

Audio
ID : 2
Format : AC-3
Format/Info : Audio Coding 3
Mode extension : CM (complete main)
Codec ID : A_AC3
Duration : 1h 40mn
Bit rate mode : Constant
Bit rate : 384 Kbps
Channel(s) : 6 channels
Channel positions : Front: L C R, Side: L R, LFE
Sampling rate : 48.0 KHz
Bit depth : 16 bits
Compression mode : Lossy
Stream size : 277 MiB (7%)
Language : Russian
Default : Yes
Forced : Yes

Text
ID : 3
Format : UTF-8
Codec ID : S_TEXT/UTF8
Codec ID/Info : UTF-8 Plain Text
Language : English
Default : No
Forced : No
pb.wtf



Скачать Одноклассники 2 через торрент http://i5.imageban.ru/out/2013/11/06/91e94c915669676e40d7f67d7ae3efc9.png Скачать фильм Одноклассники 2 через торрент бесплантно в хорошем качестве Описание: После того как Ленни Федер переезжает с семьей обратно в родной город, он и его друзья извлекут немало уроков, когда их дети ... 9.7 10 15
Info! Золотая раздача, скачанное не засчитывается.
Торрент: Зарегистрирован [2013-11-05 20:41] · скачан: 672 раз
Статус: √ проверено
Размер: 3.77 GB
Как cкачать? Как скачать Одноклассники 2 через торрент | qTorrent

% Раздел Тема Автор DL S | L
Фильмы 2013 [DVDrip, WEB-DLRip, HDrip] [ 1.46 GB ] Одноклассники 2 / Grown Ups 2 [2013 HDRip [Цифровая лицензия/]] MihailHD Скачать
1 | 0
T Фильмы [HD 720p, 1080p] (Хороший звук DUB, MVO) [ 4.09 GB ] Одноклассники 2 / Grown Ups 2 [2013 BDRip 720p + Оригинал] от DHT-Movies Dean24 Скачать
1 | 0
Фильмы 2013 [DVDrip, WEB-DLRip, HDrip] [ 1.46 GB ] Одноклассники 2 / Grown Ups 2 [2013 BDRip-AVC ] potroks Скачать
1 | 0
Фильмы (DVD фильмы) [ 5.58 GB ] Одноклассники 2 / Grown Ups 2 [2013 DVD9] R5 voovaz Скачать
1 | 0
Фильмы [HD 720p, 1080p] (Хороший звук DUB, MVO) [ 9.22 GB ] Одноклассники 2 / Grown Ups 2 [2013 BDRip 1080p Ворон Скачать
1 | 0
Фильмы 2013 [DVDrip, WEB-DLRip, HDrip] [ 2.05 GB ] Одноклассники 2 / Grown Ups 2 [2013 HDRip | Russia|] кэп Скачать
1 | 0
Фильмы (Blu-ray, BD-Remux, HDDVD) [ 21.43 GB ] Одноклассники 2 / Grown Ups 2 [2013 BD-Remux + Оригинал] Бумер Скачать
1 | 0

28-11-2019 20:33  

Отключить всю рекламу на сайте

    Дорогой пользователь! Огромная просьба, поблагодарите релизера, оцените раздачу и оставьте свои комментарий, если Вы скачали Одноклассники 2 через торрент бесплатно! Внесите свою лепту в развитие PiratBit!
    Комментировать посты могут только пользователи прошедшие не сложную регистрацию
    Показать сообщения:    

    Одноклассники 2 через торрент
    Скачать бесплатно Одноклассники 2
    Одноклассники 2 скачать торрент
    Одноклассники 2 смотреть онлайн
    Cкачать фильм Одноклассники 2 бесплатно
    Одноклассники 2 скачать торрент в хорошем качестве
    Одноклассники 2 смотреть онлайн бесплатно в хорошем качестве


    Вы не можете начинать темы
    Вы не можете отвечать на сообщения
    Вы не можете редактировать свои сообщения
    Вы не можете удалять свои сообщения
    Вы не можете голосовать в опросах
    Вы не можете прикреплять файлы к сообщениям
    Вы можете скачивать файлы