Ссылка на приватное зеркало всего за 1$. Внимание количество ограничено!!!

iTunes

iTunes

iTunes

1

iTunes

iTunes

iTunes

iTunes

iTunes

30
pack

Новость дня

ВАЖНО

!!Акция!!

Alien_RageХит недели

RePack

Resident Evil 21

ИГРА 18+

pack

RePack

jed

!!Акция!!

Alien_Rage

RePack

fifa19

RePack

Assassins Creed: Odyssey

RePack

NEED FOR SPEED™ PAYBACK

4 сезон

9 сезон

Бесстыжие 9 сезон

Все сериалы

все сериалы на PB.wtf

RePack

FAR CRY 5
  

Отверженные / Les Miserables (Том Хупер) [2012 г., драма, мюзикл, BDRip 720p, Дубляж + Оригинал] pb.wtf

Отверженные через торрент pb.wtf

Размер: 9.87 GB | Добавлен: 6 лет 11 мес. назад | Торрент скачан:220 раз
Скачать  

13-04-2013 13:31 Отверженные Скачать торрент  

Отверженные / Les Misérables«Борьба. Мечта. Надежда. Любовь.»


  • Год выпуска: 2012
  • Страна: США, Великобритания
  • Жанр: мюзикл, драма, мелодрама
  • Продолжительность: 02:37:54
  • Перевод: Дублированный [Лицензия] + Оригинал
  • Субтитры: Русский, Английский, Французкий, Испанский [Вшитые отключаемые ]
  • Режиссер: Том Хупер / Tom Hooper
  • В ролях: Хью Джекман (Jean Valjean), Рассел Кроу (Javert), Энн Хэтэуэй (Fantine), Аманда Сайфред (Cosette), Эдди Редмэйн (Marius), Хелена Бонем Картер (Madame Thénardier), Саша Барон Коэн (Thénardier), Аарон Твейт (Enjolras), Саманта Баркс (Éponine), Дэниэл Хаттлстоун (Gavroche), Изабелль Аллен (Young Cosette), Наталья Энджел Уоллес (Young Éponine)
  • Описание:
    Действие развивается в начале XIX столетия. Беглый каторжник Жан Вальжан, приговоренный к тюремному заключению, вынужден долгие годы скрываться от жестокого правосудия. Инспектор парижской полиции Жавер считает его поимку делом всей своей жизни. После смерти Фантины - женщины, за судьбу которой Жан Вальжан считал себя в ответе, - единственным близким ему человеком остается ее дочь Козетта. Ради счастья девушки Жан готов на все.
  • Рейтинг
    kinopoisk.ru: 8.365 (14 937)
    imdb.com: 7.90 (92 610)
    MPAA: PG-13 - Детям до 13 лет просмотр не желателен
  • Качество видео: BDRip 720p
  • Формат видео: MKV
  • Видео кодек: H.264
  • Аудио кодек: AC3 5.1 | DTS
  • Видео: 1280 x 688 (1.860), ~ 6666 Кбит/сек, at 23.976 fps : 0.316 Bits/Pix
  • Аудио #1: AC3 384 Кбит/сек (6ch), 48,0 КГц, 16 бит
  • Аудио #2: DTS 1510 Кбит/сек (6ch), 48,0 КГц, 24 бит [Английский]
  • Аудио #3: 192 Кбит/сек (2ch), 48,0 КГц, 16 бит [Английский-комментарии #1]
  • Аудио #4: 192 Кбит/сек (2ch), 48,0 КГц, 16 бит [Английский-комментарии #2]
  • Дополнительно: Сохранены оригинальные чаптеры как на Blu-ray

  • Полное имя : H:Отверженные Les_Misérables 2012 BDRip 720-1080pLes.Misérables.2012.BDRip.720p.
    Формат : Matroska
    Версия формата : Version 2
    Размер файла : 9,87 Гбайт
    Продолжительность : 2 ч. 37 м.
    Общий поток : 8946 Кбит/сек
    Название фильма : Les.Misérables.2012.BDRip.720p.
    Дата кодирования : UTC 2013-04-13 09:32:22
    Программа кодирования : mkvmerge v2.9.9 ('Tutu') built on Nov 25 2009 21:13:32
    Библиотека кодирования : libebml v0.7.9 + libmatroska v0.8.1

    Видео
    Идентификатор : 1
    Формат : AVC
    Формат/Информация : Advanced Video Codec
    Профиль формата : High@L4.1
    Параметр CABAC формата : Да
    Параметр ReFrames формата : 9 кадров
    Идентификатор кодека : V_MPEG4/ISO/AVC
    Продолжительность : 2 ч. 37 м.
    Битрейт : 6666 Кбит/сек
    Ширина : 1280 пикселей
    Высота : 688 пикселей
    Соотношение сторон : 1,85:1
    Режим частоты кадров : Постоянный
    Частота кадров : 23,976 кадра/сек
    Цветовое пространство : YUV
    Субдискретизация насыщенности : 4:2:0
    Битовая глубина : 8 бит
    Тип развёртки : Прогрессивная
    Бит/(Пиксели*Кадры) : 0.316
    Размер потока : 7,16 Гбайт (73%)
    Заголовок : -=Rip by GIU=-
    Библиотека кодирования : x264 core 116 r2074 2641b9e
    Настройки программы : cabac=1 / ref=9 / deblock=1:-3:-3 / analyse=0x3:0x113 / me=umh / subme=11 / psy=1 / psy_rd=1.00:0.25 / mixed_ref=1 / me_range=32 / chroma_me=1 / trellis=2 / 8x8dct=1 / cqm=0 / deadzone=21,11 / fast_pskip=1 / chroma_qp_offset=-4 / threads=12 / sliced_threads=0 / nr=0 / decimate=1 / interlaced=0 / bluray_compat=0 / constrained_intra=0 / bframes=7 / b_pyramid=2 / b_adapt=2 / b_bias=0 / direct=3 / weightb=1 / open_gop=0 / weightp=1 / keyint=250 / keyint_min=23 / scenecut=50 / intra_refresh=0 / rc_lookahead=40 / rc=2pass / mbtree=1 / bitrate=6666 / ratetol=1.0 / qcomp=0.70 / qpmin=10 / qpmax=51 / qpstep=4 / cplxblur=20.0 / qblur=0.5 / ip_ratio=1.40 / aq=1:1.00
    Язык : English
    Default : Нет
    Forced : Нет

    Аудио #1
    Идентификатор : 2
    Формат : AC-3
    Формат/Информация : Audio Coding 3
    Расширение режима : CM (complete main)
    Параметр Endianness формата : Big
    Идентификатор кодека : A_AC3
    Продолжительность : 2 ч. 37 м.
    Вид битрейта : Постоянный
    Битрейт : 384 Кбит/сек
    Каналы : 6 каналов
    Расположение каналов : Front: L C R, Side: L R, LFE
    Частота : 48,0 КГц
    Битовая глубина : 16 бит
    Метод сжатия : С потерями
    Размер потока : 434 Мбайт (4%)
    Заголовок : AC3.384Kbps (6ch) Russian
    Язык : Russian
    Default : Да
    Forced : Нет

    Аудио #2
    Идентификатор : 3
    Формат : DTS
    Формат/Информация : Digital Theater Systems
    Идентификатор кодека : A_DTS
    Продолжительность : 2 ч. 37 м.
    Вид битрейта : Постоянный
    Битрейт : 1510 Кбит/сек
    Каналы : 6 каналов
    Расположение каналов : Front: L C R, Side: L R, LFE
    Частота : 48,0 КГц
    Битовая глубина : 24 бит
    Метод сжатия : С потерями
    Размер потока : 1,67 Гбайт (17%)
    Заголовок : DTS.1510.Kbps (6ch) English
    Язык : English
    Default : Нет
    Forced : Нет

    Аудио #3
    Идентификатор : 4
    Формат : AC-3
    Формат/Информация : Audio Coding 3
    Профиль формата : Dolby Digital
    Расширение режима : CM (complete main)
    Параметр Endianness формата : Big
    Идентификатор кодека : A_AC3
    Продолжительность : 2 ч. 37 м.
    Вид битрейта : Постоянный
    Битрейт : 192 Кбит/сек
    Каналы : 2 канала
    Расположение каналов : Front: L R
    Частота : 48,0 КГц
    Битовая глубина : 16 бит
    Метод сжатия : С потерями
    Размер потока : 217 Мбайт (2%)
    Заголовок : AC3.192.Kbps (2ch) English.Commentary #1
    Язык : English
    Default : Нет
    Forced : Нет

    Аудио #4
    Идентификатор : 5
    Формат : AC-3
    Формат/Информация : Audio Coding 3
    Профиль формата : Dolby Digital
    Расширение режима : CM (complete main)
    Параметр Endianness формата : Big
    Идентификатор кодека : A_AC3
    Продолжительность : 2 ч. 37 м.
    Вид битрейта : Постоянный
    Битрейт : 192 Кбит/сек
    Каналы : 2 канала
    Расположение каналов : Front: L R
    Частота : 48,0 КГц
    Битовая глубина : 16 бит
    Метод сжатия : С потерями
    Размер потока : 217 Мбайт (2%)
    Заголовок : AC3.192.Kbps (2ch) English.Commentary #2
    Язык : English
    Default : Нет
    Forced : Нет

    Текст #1
    Идентификатор : 6
    Формат : UTF-8
    Идентификатор кодека : S_TEXT/UTF8
    Идентификатор кодека/Информация : UTF-8 Plain Text
    Заголовок : Russian (Full)
    Язык : Russian
    Default : Нет
    Forced : Нет

    Текст #2
    Идентификатор : 7
    Формат : UTF-8
    Идентификатор кодека : S_TEXT/UTF8
    Идентификатор кодека/Информация : UTF-8 Plain Text
    Заголовок : English (SDH)
    Язык : English
    Default : Нет
    Forced : Нет

    Текст #3
    Идентификатор : 8
    Формат : UTF-8
    Идентификатор кодека : S_TEXT/UTF8
    Идентификатор кодека/Информация : UTF-8 Plain Text
    Заголовок : French (Full)
    Язык : French
    Default : Нет
    Forced : Нет

    Текст #4
    Идентификатор : 9
    Формат : UTF-8
    Идентификатор кодека : S_TEXT/UTF8
    Идентификатор кодека/Информация : UTF-8 Plain Text
    Заголовок : Spanish (Full)
    Язык : Spanish
    Default : Нет
    Forced : Нет

    Меню
    00:00:00.000 : en:Chapter 00
    00:07:22.817 : en:Chapter 01
    00:14:31.996 : en:Chapter 02
    00:22:22.966 : en:Chapter 03
    00:31:52.619 : en:Chapter 04
    00:40:13.661 : en:Chapter 05
    00:45:14.294 : en:Chapter 06
    00:52:43.493 : en:Chapter 07
    01:00:40.845 : en:Chapter 08
    01:06:41.122 : en:Chapter 09
    01:15:51.088 : en:Chapter 10
    01:20:21.650 : en:Chapter 11
    01:27:04.344 : en:Chapter 12
    01:35:34.729 : en:Chapter 13
    01:42:10.290 : en:Chapter 14
    01:52:20.859 : en:Chapter 15
    02:03:01.082 : en:Chapter 16
    02:10:09.343 : en:Chapter 17
    02:21:18.178 : en:Chapter 18
    02:29:41.347 : en:Chapter 19

    © Оформление&Постер by Vetalpb.wtf



  • Скачать Отверженные через торрент http://i47.fastpic.ru/big/2013/0413/d8/b6fe9413a7ecc8e843c4032f3f0ee8d8.png Скачать фильм Отверженные через торрент бесплантно в хорошем качестве Описание: Действие развивается в начале XIX столетия. Беглый каторжник Жан Вальжан, приговоренный к тюремному заключению, вынужден долгие ... 7.6 10 7
    Info! Золотая раздача, скачанное не засчитывается.
    Торрент: Зарегистрирован [2013-04-13 13:31] · скачан: 220 раз
    Статус: √ проверено
    Размер: 9.87 GB
    Как cкачать? Как скачать Отверженные через торрент | qTorrent

    % Раздел Тема Автор DL S | L
    Зарубежные сериалы [ 13.98 GB ] Отверженные / Les Miserables / Сезон: 1 / Серии: 1-6 из 6 [2019 история HDTVRip 1080p] MVO [TVShows] bober100 Скачать
    1 | 0
    Зарубежные сериалы [ 24.35 GB ] Отверженные / Les Misérables / Les Miserables / Сезон: 1 / Серии: 1-6 из 6 [2018-2019 история WEB-DL 1080p] MVO [LostFilm] bober100 Скачать
    2 | 0
    Классика зарубежного кино [ 7.88 GB ] Отверженные / Les Miserables [1995 военный DVD9] Dub + MVO + Original Fre Assasinca Скачать
    1 | 1
    Классика зарубежного кино [ 5.86 GB ] Отверженные / Les Miserables [2000 DVDRip]MVO + original + sub Assasinca Скачать
    1 | 0
    Фильмы 2012 [ 1.37 GB ] Отверженные / Les Miserables [2012 мюзикл HDRip ] DUB [ лицензия ] Ворон Скачать
    1 | 0
    Фильмы 2012 [ 2.06 GB ] Отверженные / Les Miserables [2012 мюзикл HDRip ] DUB [ лицензия ] Ворон Скачать
    3 | 0
    Фильмы [HD 720p, 1080p] (Хороший звук DUB, MVO) [ 4.99 GB ] Отверженные / Les Miserables [2012 мюзикл BDRip 720p лицензия] Sудья Скачать
    1 | 0


    Последний раз редактировалось: Ворон (2013-04-13 20:46), всего редактировалось 1 раз

    28-11-2019 20:33  

    Отключить всю рекламу на сайте

    13-04-2013 17:36 Отверженные Скачать торрент  

    чтото нет субтитров на медиаплеер не видит ни телекpb.wtf



    13-04-2013 20:13 Отверженные Скачать торрент  

    То же самое, субтитры отсутствуют..pb.wtf



    13-04-2013 20:49 Отверженные Скачать торрент  

    aharlov27
    ksyshka
    Не знаю что у вас не так.Вот сделал скрины всех имеющихся субтитров в рипе, это к тому что они есть.pb.wtf



    24-04-2013 10:06 Отверженные Скачать торрент  

    Проблема такая же. субтитры не отображаются, выложи пожалуйста их отдельным фаилом.pb.wtf



    24-04-2013 10:46 Отверженные Скачать торрент  

    Нашел субтитры, кому нужны вот ссылка http://subs.com.ru/page.php?id=31638pb.wtf



      Дорогой пользователь! Огромная просьба, поблагодарите релизера, оцените раздачу и оставьте свои комментарий, если Вы скачали Отверженные через торрент бесплатно! Внесите свою лепту в развитие PiratBit!
      Комментировать посты могут только пользователи прошедшие не сложную регистрацию
      Показать сообщения:    

      Отверженные через торрент
      Скачать бесплатно Отверженные
      Отверженные скачать торрент
      Отверженные смотреть онлайн
      Cкачать фильм Отверженные бесплатно
      Отверженные скачать торрент в хорошем качестве
      Отверженные смотреть онлайн бесплатно в хорошем качестве


      Вы не можете начинать темы
      Вы не можете отвечать на сообщения
      Вы не можете редактировать свои сообщения
      Вы не можете удалять свои сообщения
      Вы не можете голосовать в опросах
      Вы не можете прикреплять файлы к сообщениям
      Вы можете скачивать файлы