Ссылка на приватное зеркало нашего сайта всего за 1$. Внимание количество ограничено!!!

2 сезон

iTunes

1 сезон

1

iTunes

iTunes

iTunes

1 сезон

RePack

30

ИГРА 18+

pack

ВАЖНО

!!Акция!!

Alien_RageХит недели

RePack

MK11
pack

Забери бонус

RePack

jed

!!Акция!!

Alien_Rage

RePack

fifa19

RePack

Assassins Creed: Odyssey

RePack

NEED FOR SPEED™ PAYBACK

4 сезон

9 сезон

Бесстыжие 9 сезон

Все сериалы

все сериалы на PB.wtf

RePack

FAR CRY 5
  

Отверженные / Les Miserables (Том Хупер) [2012 г., мюзикл, драма, мелодрама, BDRip 720p, Дубляж, лицензия] pb.wtf

Отверженные через торрент pb.wtf

Размер: 4.99 GB | Добавлен: 7 лет 6 мес. назад | Торрент скачан:419 раз
Скачать  

14-04-2013 03:29 Отверженные Скачать торрент  

Отверженные / Les Miserables
Год выпуска: 2012
Страна: США
Жанр: мюзикл, драма, мелодрама,
Продолжительность: 02:37:54
Перевод: Дубляж, Лицензия
Субтитры: Русские, английские

Режиссер: Том Хупер
Продюссер: Тим Беван, Эрик Феллнер, Дебра Хейуорд
Сценарий: Уильям Николсон, Ален Бублиль, Клод-Мишель Шонберг

Мировой рейтинг IMDB 7.80 (113 676)



Описание: Действие развивается в начале XIX столетия. Беглый каторжник Жан Вальжан, приговоренный к тюремному заключению, вынужден долгие годы скрываться от жестокого правосудия. Инспектор парижской полиции Жавер считает его поимку делом всей своей жизни. После смерти Фантины — женщины, за судьбу которой Жан Вальжан считал себя в ответе, — единственным близким ему человеком остается ее дочь Козетта. Ради счастья девушки Жан готов на все.

Качество: BDRip 720p
Формат: MKV
Видео кодек: H.264
Аудио кодек: AC3
Видео: 1280 x 694 (1.844) at 23.976 fps AVC at 4121 Кбит/сек
Аудио: AC-3 at 384 Кбит/сек 6 каналов, 48,0 КГц DUB
скриншот   скриншот   скриншот   скриншот   скриншот  

Общее
Уникальный идентификатор : 172835260432493933540061163318210599851 (0x8206DC3FFB70661AB0367F7DC04A1BAB)
Полное имя : D:ФильмыOtverzhennye.2012.BDRip.720p.=Sудья=.mkv
Формат : Matroska
Версия формата : Version 4 / Version 2
Размер файла : 4,99 Гбайт
Продолжительность : 2 ч. 37 м.
Общий поток : 4528 Кбит/сек
Название фильма : http://pb.wtf/ =Sудья=
Дата кодирования : UTC 2010-02-22 21:41:31
Программа кодирования : mkvmerge v5.9.0 ('On The Loose') built on Dec 9 2012 15:37:01
Библиотека кодирования : libebml v1.3.0 + libmatroska v1.4.0

Видео
Идентификатор : 1
Формат : AVC
Формат/Информация : Advanced Video Codec
Профиль формата : Baseline@L4.1
Параметр CABAC формата : Нет
Параметр ReFrames формата : 1 кадр
Режим смешивания : Header stripping
Идентификатор кодека : V_MPEG4/ISO/AVC
Продолжительность : 2 ч. 37 м.
Битрейт : 4121 Кбит/сек
Ширина : 1280 пикселей
Высота : 694 пикселя
Соотношение сторон : 16:9
Частота кадров : 23,976 кадра/сек
Цветовое пространство : YUV
Субдискретизация насыщенности : 4:2:0
Битовая глубина : 8 бит
Тип развёртки : Прогрессивная
Бит/(Пиксели*Кадры) : 0.193
Размер потока : 4,47 Гбайт (90%)
Заголовок : Les.Miserables.2012-CHD
Библиотека кодирования : x264 core 125 r2200bm 999b753
Настройки программы : cabac=0 / ref=1 / deblock=0:0:0 / analyse=0:0 / me=dia / subme=0 / psy=1 / psy_rd=1.00:0.00 / mixed_ref=0 / me_range=16 / chroma_me=1 / trellis=0 / 8x8dct=0 / cqm=0 / deadzone=21,11 / fast_pskip=1 / chroma_qp_offset=0 / threads=3 / lookahead_threads=1 / sliced_threads=0 / nr=0 / decimate=1 / interlaced=0 / bluray_compat=0 / constrained_intra=0 / bframes=0 / weightp=0 / keyint=250 / keyint_min=23 / scenecut=0 / intra_refresh=0 / rc=abr / mbtree=0 / bitrate=4121 / ratetol=1.0 / qcomp=0.60 / qpmin=0 / qpmax=69 / qpstep=4 / ip_ratio=1.40 / aq=0
Язык : English
Default : Да
Forced : Нет

Аудио
Идентификатор : 2
Формат : AC-3
Формат/Информация : Audio Coding 3
Расширение режима : CM (complete main)
Режим смешивания : Header stripping
Идентификатор кодека : A_AC3
Продолжительность : 2 ч. 37 м.
Вид битрейта : Постоянный
Битрейт : 384 Кбит/сек
Каналы : 6 каналов
Расположение каналов : Front: L C R, Side: L R, LFE
Частота : 48,0 КГц
Битовая глубина : 16 бит
Метод сжатия : С потерями
Размер потока : 434 Мбайт (8%)
Язык : Russian
Default : Да
Forced : Да

Текст #1
Идентификатор : 3
Формат : UTF-8
Идентификатор кодека : S_TEXT/UTF8
Идентификатор кодека/Информация : UTF-8 Plain Text
Язык : Russian
Default : Нет
Forced : Нет

Текст #2
Идентификатор : 4
Формат : UTF-8
Идентификатор кодека : S_TEXT/UTF8
Идентификатор кодека/Информация : UTF-8 Plain Text
Язык : English
Default : Нет
Forced : Нет

pb.wtf



Скачать Отверженные через торрент http://pic.kartinco.top/images/2/3s3pifed9r.png Скачать фильм Отверженные через торрент бесплантно в хорошем качестве Описание: Действие развивается в начале XIX столетия. Беглый каторжник Жан Вальжан, приговоренный к тюремному заключению, вынужден долгие ... 9.9 10 13
Info! Золотая раздача, скачанное не засчитывается.
Торрент: Зарегистрирован [2013-04-14 03:29] · скачан: 419 раз
Статус: √ проверено
Размер: 4.99 GB
Как cкачать? Как скачать Отверженные через торрент | qTorrent

% Раздел Тема Автор DL S | L
Зарубежные сериалы [ 13.98 GB ] Отверженные / Les Miserables / Сезон: 1 / Серии: 1-6 из 6 [2019 история HDTVRip 1080p] MVO [TVShows] bober100 Скачать
1 | 0
Зарубежные сериалы [ 24.35 GB ] Отверженные / Les Misérables / Les Miserables / Сезон: 1 / Серии: 1-6 из 6 [2018-2019 история WEB-DL 1080p] MVO [LostFilm] bober100 Скачать
1 | 0
Классика зарубежного кино [ 7.88 GB ] Отверженные / Les Miserables [1995 военный DVD9] Dub + MVO + Original Fre Assasinca Скачать
1 | 1
Классика зарубежного кино [ 5.86 GB ] Отверженные / Les Miserables [2000 DVDRip]MVO + original + sub Assasinca Скачать
1 | 0
Фильмы 2012 [ 1.37 GB ] Отверженные / Les Miserables [2012 мюзикл HDRip ] DUB [ лицензия ] Ворон Скачать
1 | 0
Фильмы [HD 720p, 1080p] (Хороший звук DUB, MVO) [ 9.87 GB ] Отверженные / Les Miserables [2012 мюзикл BDRip 720p + Оригинал] Ворон Скачать
1 | 0
Фильмы 2012 [ 2.06 GB ] Отверженные / Les Miserables [2012 мюзикл HDRip ] DUB [ лицензия ] Ворон Скачать
1 | 0

28-11-2019 20:33  

Отключить всю рекламу на сайте

    Дорогой пользователь! Огромная просьба, поблагодарите релизера, оцените раздачу и оставьте свои комментарий, если Вы скачали Отверженные через торрент бесплатно! Внесите свою лепту в развитие PiratBit!
    Комментировать посты могут только пользователи прошедшие не сложную регистрацию
    Показать сообщения:    

    Отверженные через торрент
    Скачать бесплатно Отверженные
    Отверженные скачать торрент
    Отверженные смотреть онлайн
    Cкачать фильм Отверженные бесплатно
    Отверженные скачать торрент в хорошем качестве
    Отверженные смотреть онлайн бесплатно в хорошем качестве


    Вы не можете начинать темы
    Вы не можете отвечать на сообщения
    Вы не можете редактировать свои сообщения
    Вы не можете удалять свои сообщения
    Вы не можете голосовать в опросах
    Вы не можете прикреплять файлы к сообщениям
    Вы можете скачивать файлы