2 сезон

iTunes

MVO

1

2 сезон

iTunes

iTunes

1 сезон

RePack

30

Новинка

ВАЖНО

ИГРА 18+

pack

RePack

MK11
pack

Легкие деньги

RePack

jed

RePack

fifa19

RePack

RDR2

RePack

NEED FOR SPEED™ PAYBACK

4 сезон

9 сезон

Бесстыжие 9 сезон

Все сериалы

все сериалы на PB.wtf

RePack

FAR CRY 5

Anonymous, доброй ночи, мы не успеваем собрать деньги на оплату серверов за декабрь и январь, помогите нам пожалуйста в это трудное время. В качестве благодарности мы отключим Вам всю рекламу на сайте (укажите свой ник в строку Ваше имя)!

×
  
Magnet ссылка

Пипец 2 / Kick-Ass 2 (Джефф Уодлоу / Jeff Wadlow) [2013, Боевик, комедия, криминал, HDRip, DUB] [Лизензия / iTunes] pb.wtf

Пипец 2 через торрент pb.wtf

Размер: 2.05 GB | Добавлен: 7 лет 1 мес. назад | Торрент скачан:618 раз
Скачать  

30-11-2013 08:29 Пипец 2 Скачать торрент  

Пипец 2 / Kick-Ass 2

Год выпуска : 2013
Страна: США, Великобритания
Жанр: Боевик, комедия, криминал

Продолжительность: 01:43:00
Перевод: Дубляж [Лицензия / iTunes]
Субтитры: Нет
Режиссер: Джефф Уодлоу / Jeff Wadlow
В ролях: Аарон Тейлор-Джонсон (Dave Lizewski /Kick-Ass), Хлоя Грейс Морец (Mindy Macready /Hit-Girl), Кристофер Минц-Плассе (Chris D'Amico /The Motherfucker), Джим Керри (Colonel Stars and Stripes), Ольга Куркулина (Mother Russia), Кларк Дьюк (Marty /Battle Guy), Линди Бут (Night Bitch), Дональд Фэйсон (Dr. Gravity), Моррис Честнат (Detective Marcus Williams), Август Прю (Todd /Ass Kicker), Роберт Эммс (Insect Man), Клаудия Ли (Brooke)
Описание: В реальной жизни не встретишь супергероя из комиксов, зато в ней есть настоящие герои. Харизматичный Пипец и гламурная Убивашка обрели новую команду поддержки во главе с Полковником Америка. Но кроме обычных мафиози, над городом нависает новая угроза - молодой мажор с очень дурным характером и целой армией отмороженных наемников.
Рейтинг

imdb.com: 6.90 (66 711)
MPAA: R - Лицам до 17 лет обязательно присутствие взрослого
Качество: HDRip
Формат: AVI
Видео кодек: XviD
Аудио кодек: AC3
Видео: XviD, 720x304 (2.35:1), 2000 kbps, 23,976 fps
Аудио №1: AC3 / 5.1 / 48 kHz / 384 kbps / 16 bit
Аудио №2: AC3 / 5.1 / 48 kHz / 448 kbps / 16 bit

General
Complete name : H:Пипец 2.2013.HDRip.avi
Format : AVI
Format/Info : Audio Video Interleave
Format profile : OpenDML
File size : 2.05 GiB
Duration : 1h 43mn
Overall bit rate : 2 851 Kbps
Writing application : VirtualDubMod 1.5.10.2 (build 2540/release)
Writing library : VirtualDubMod build 2540/release

Video
ID : 0
Format : MPEG-4 Visual
Format profile : Advanced Simple@L5
Format settings, BVOP : 2
Format settings, QPel : No
Format settings, GMC : No warppoints
Format settings, Matrix : Custom
Codec ID : XVID
Codec ID/Hint : XviD
Duration : 1h 43mn
Bit rate : 2 001 Kbps
Width : 720 pixels
Height : 304 pixels
Display aspect ratio : 2.35:1
Frame rate : 23.976 fps
Color space : YUV
Chroma subsampling : 4:2:0
Bit depth : 8 bits
Scan type : Progressive
Compression mode : Lossy
Bits/(Pixel*Frame) : 0.381
Stream size : 1.44 GiB (70%)
Writing library : XviD 1.2.1 (UTC 2008-12-04)

Audio #1
ID : 1
Format : AC-3
Format/Info : Audio Coding 3
Mode extension : CM (complete main)
Codec ID : 2000
Duration : 1h 42mn
Bit rate mode : Constant
Bit rate : 384 Kbps
Channel(s) : 6 channels
Channel positions : Front: L C R, Side: L R, LFE
Sampling rate : 48.0 KHz
Bit depth : 16 bits
Compression mode : Lossy
Stream size : 283 MiB (13%)
Alignment : Split accross interleaves
Interleave, duration : 42 ms (1.00 video frame)
Interleave, preload duration : 500 ms

Audio #2
ID : 2
Format : AC-3
Format/Info : Audio Coding 3
Mode extension : CM (complete main)
Codec ID : 2000
Duration : 1h 43mn
Bit rate mode : Constant
Bit rate : 448 Kbps
Channel(s) : 6 channels
Channel positions : Front: L C R, Side: L R, LFE
Sampling rate : 48.0 KHz
Bit depth : 16 bits
Compression mode : Lossy
Stream size : 330 MiB (16%)
Alignment : Split accross interleaves
Interleave, duration : 42 ms (1.00 video frame)
Interleave, preload duration : 500 ms
pb.wtf



Скачать Пипец 2 через торрент http://i1.imageban.ru/out/2013/11/30/f7aeff8762be03727c85b1f21206f28c.png Скачать фильм Пипец 2 через торрент бесплантно в хорошем качестве Описание: В реальной жизни не встретишь супергероя из комиксов, зато в ней есть настоящие герои. Харизматичный Пипец и гламурная Убивашка ... 9.6 10 20
Info! Золотая раздача, скачанное не засчитывается.
Торрент: Зарегистрирован [2013-11-30 08:29] · скачан: 618 раз
Статус: √ проверено
Размер: 2.05 GB
Как cкачать? Как скачать Пипец 2 через торрент | UTorrent

% Раздел Тема Автор DL S | L
Фильмы (DVD фильмы) [ 7.22 GB ] Пипец 2 / Kick-Ass 2 [2013 DVD9] R5 voovaz Скачать
1 | 0
Фильмы 2013 [DVDrip, WEB-DLRip, HDrip] [ 1.37 GB ] Пипец 2 / Kick-Ass 2 [2013 BDRip ] кэп Скачать
1 | 0
Фильмы 2013 [DVDrip, WEB-DLRip, HDrip] [ 1.46 GB ] Пипец 2 / Kick-Ass 2 [2013 BDRip-AVC - Russia] potroks Скачать
1 | 0
Фильмы 2013 [DVDrip, WEB-DLRip, HDrip] [ 2.18 GB ] Пипец 2 / Kick-Ass 2 [2013 BDRip-AVC - Russia] potroks Скачать
1 | 0
Фильмы (Blu-ray, BD-Remux, HDDVD) [ 23.49 GB ] Пипец 2 / Kick-Ass 2 [ 2013 BD Remux ] DUB () Ворон Скачать
1 | 0
Фильмы [HD 720p, 1080p] (Хороший звук DUB, MVO) [ 7.92 GB ] Пипец 2 / Kick-Ass 2 [2013 BDRip 1080p DUB] [Лизензия / ] лисяра Скачать
1 | 0

28-11-2019 20:33  

Отключить всю рекламу на сайте

    Дорогой пользователь! Огромная просьба, поблагодарите релизера, оцените раздачу и оставьте свои комментарий, если Вы скачали Пипец 2 через торрент бесплатно! Внесите свою лепту в развитие PiratBit!
    Комментировать посты могут только пользователи прошедшие не сложную регистрацию
    Показать сообщения:    

    Пипец 2 через торрент
    Скачать бесплатно Пипец 2
    Пипец 2 скачать торрент
    Пипец 2 смотреть онлайн
    Cкачать фильм Пипец 2 бесплатно
    Пипец 2 скачать торрент в хорошем качестве
    Пипец 2 смотреть онлайн бесплатно в хорошем качестве


    Вы не можете начинать темы
    Вы не можете отвечать на сообщения
    Вы не можете редактировать свои сообщения
    Вы не можете удалять свои сообщения
    Вы не можете голосовать в опросах
    Вы не можете прикреплять файлы к сообщениям
    Вы можете скачивать файлы