Ссылка на приватное зеркало нашего сайта всего за 1$. Внимание количество ограничено!!!

2 сезон

iTunes

1 сезон

1

iTunes

iTunes

iTunes

1 сезон

RePack

30

ИГРА 18+

pack

ВАЖНО

!!Акция!!

Alien_RageХит недели

RePack

MK11
pack

Забери бонус

RePack

jed

!!Акция!!

Alien_Rage

RePack

fifa19

RePack

Assassins Creed: Odyssey

RePack

NEED FOR SPEED™ PAYBACK

4 сезон

9 сезон

Бесстыжие 9 сезон

Все сериалы

все сериалы на PB.wtf

RePack

FAR CRY 5
  

Порочные игры / Stoker (Пак Чхан Ук) [2013 г., триллер, драма, детектив, BDRip 1080p, Профессиональный + Оригинал] pb.wtf

Порочные игры через торрент pb.wtf

Размер: 15.23 GB | Добавлен: 7 лет 3 мес. назад | Торрент скачан:144 раза
Скачать  

09-07-2013 20:00 Порочные игры Скачать торрент  

Порочные игры / StokerГод выпуска: 2013
Страна: Великобритания, США / Fox Searchlight Pictures
Жанр: триллер, драма, детектив,
Продолжительность: 01:38:55
Перевод: Профессиональный + Оригинал
Субтитры: Русские, английские, украинские

Режиссер: Пак Чхан Ук

В ролях: Миа Васиковска, Мэттью Гуд, Николь Кидман, Дермот Малруни, Джеки Уивер, Лукас Тилл, Олден Эйренрайк, Жюдит Годреш, Ральф Браун, Уильям Райан Уотсон,

Описание: История повествует про необычную девушку. У нее в жизни начались резкие изменения — сначала погибает отец, а потом его место занимает таинственный дядя, который решил взять опеку над осиротевшей семьей.

Качество: BDRip 1080p
Формат: MKV
Видео кодек: MPEG4/AVC
Аудио кодек: DTS/AC3
Видео: 1920x800 at 23.976 fps, x264@L4.1, CRF, ~18.9 Mbps avg
Аудио#1: Russian: 48 kHz, DTS, 3/2 (L,C,R,l,r) + LFE ch, ~768.00 kbps avg |Многоголосый закадровый, Blu-ray EUR|
Аудио#2: English: 48 kHz, DTS, 3/2 (L,C,R,l,r) + LFE ch, ~1536.00 kbps avg
Аудио#3: English: 48 kHz, AC3, 3/2 (L,C,R,l,r) + LFE ch, ~448.00 kbps avg |Descriptive|
Релиз от:
General
Unique ID : 235193660464556120321255110383907236133 (0xB0F0A6BE574C56CFB58C6A354EB1E925)
Complete name : C:UsersВладленDesktopStoker.2013.1080p.BluRay.DTS.Rus.2xEng.HDCLUB.mkv
Format : Matroska
Format version : Version 2
File size : 15.2 GiB
Duration : 1h 38mn
Overall bit rate : 22.0 Mbps
Movie name : Stoker (2013) - Release for HDCLUB
Encoded date : UTC 2013-07-09 13:56:04
Writing application : mkvmerge v3.4.0 ('Rapunzel') built on May 15 2010 09:38:20
Writing library : libebml v0.8.0 + libmatroska v0.9.0

Video
ID : 1
Format : AVC
Format/Info : Advanced Video Codec
Format profile : High@L4.1
Format settings, CABAC : Yes
Format settings, ReFrames : 5 frames
Codec ID : V_MPEG4/ISO/AVC
Duration : 1h 38mn
Bit rate : 18.9 Mbps
Width : 1 920 pixels
Height : 800 pixels
Display aspect ratio : 2.40:1
Frame rate mode : Constant
Frame rate : 23.976 fps
Color space : YUV
Chroma subsampling : 4:2:0
Bit depth : 8 bits
Scan type : Progressive
Bits/(Pixel*Frame) : 0.513
Stream size : 13.0 GiB (86%)
Title : Stoker (2013) - Release for HDCLUB
Writing library : x264 core 130 r2273 b3065e6
Encoding settings : cabac=1 / ref=5 / deblock=1:-3:-3 / analyse=0x3:0x113 / me=tesa / subme=10 / psy=1 / psy_rd=1.10:0.00 / mixed_ref=1 / me_range=16 / chroma_me=1 / trellis=2 / 8x8dct=1 / cqm=0 / deadzone=21,11 / fast_pskip=0 / chroma_qp_offset=-2 / threads=12 / lookahead_threads=2 / sliced_threads=0 / nr=0 / decimate=0 / interlaced=0 / bluray_compat=0 / constrained_intra=0 / bframes=8 / b_pyramid=2 / b_adapt=2 / b_bias=0 / direct=3 / weightb=1 / open_gop=0 / weightp=2 / keyint=250 / keyint_min=23 / scenecut=40 / intra_refresh=0 / rc=crf / mbtree=0 / crf=16.4 / qcomp=0.70 / qpmin=0 / qpmax=69 / qpstep=4 / ip_ratio=1.30 / pb_ratio=1.20 / aq=1:0.75 / zones=136141,141890,crf=30
Language : English
Default : Yes
Forced : No

Audio #1
ID : 2
Format : DTS
Format/Info : Digital Theater Systems
Mode : 16
Format settings, Endianness : Big
Codec ID : A_DTS
Duration : 1h 38mn
Bit rate mode : Constant
Bit rate : 768 Kbps
Channel(s) : 6 channels
Channel positions : Front: L C R, Side: L R, LFE
Sampling rate : 48.0 KHz
Bit depth : 24 bits
Compression mode : Lossy
Stream size : 543 MiB (3%)
Title : DTS 5.1 @ 768 kbps - MVO, Blu-ray EUR
Language : Russian
Default : Yes
Forced : No

Audio #2
ID : 3
Format : DTS
Format/Info : Digital Theater Systems
Mode : 16
Format settings, Endianness : Big
Codec ID : A_DTS
Duration : 1h 38mn
Bit rate mode : Constant
Bit rate : 1 509 Kbps
Channel(s) : 6 channels
Channel positions : Front: L C R, Side: L R, LFE
Sampling rate : 48.0 KHz
Bit depth : 24 bits
Compression mode : Lossy
Stream size : 1.04 GiB (7%)
Title : DTS 5.1 @ 1536 kbps
Language : English
Default : No
Forced : No

Audio #3
ID : 4
Format : AC-3
Format/Info : Audio Coding 3
Mode extension : CM (complete main)
Format settings, Endianness : Big
Codec ID : A_AC3
Duration : 1h 38mn
Bit rate mode : Constant
Bit rate : 448 Kbps
Channel(s) : 6 channels
Channel positions : Front: L C R, Side: L R, LFE
Sampling rate : 48.0 KHz
Bit depth : 16 bits
Compression mode : Lossy
Stream size : 317 MiB (2%)
Title : AC3 5.1 @ 448 kbps - Descriptive
Language : English
Default : No
Forced : No

Text #1
ID : 5
Format : UTF-8
Codec ID : S_TEXT/UTF8
Codec ID/Info : UTF-8 Plain Text
Language : Russian
Default : No
Forced : No

Text #2
ID : 6
Format : UTF-8
Codec ID : S_TEXT/UTF8
Codec ID/Info : UTF-8 Plain Text
Language : Ukrainian
Default : No
Forced : No

Text #3
ID : 7
Format : UTF-8
Codec ID : S_TEXT/UTF8
Codec ID/Info : UTF-8 Plain Text
Language : English
Default : No
Forced : No

Text #4
ID : 8
Format : UTF-8
Codec ID : S_TEXT/UTF8
Codec ID/Info : UTF-8 Plain Text
Title : SDH
Language : English
Default : No
Forced : No

Text #5
ID : 9
Format : UTF-8
Codec ID : S_TEXT/UTF8
Codec ID/Info : UTF-8 Plain Text
Title : SDH-COLORED
Language : English
Default : No
Forced : No

Menu
00:00:00.000 : en:00:00:00.000
00:03:48.603 : en:00:03:48.603
00:04:37.277 : en:00:04:37.277
00:07:26.863 : en:00:07:26.863
00:08:42.147 : en:00:08:42.147
00:13:28.558 : en:00:13:28.558
00:16:59.810 : en:00:16:59.810
00:19:24.955 : en:00:19:24.955
00:22:27.096 : en:00:22:27.096
00:26:50.067 : en:00:26:50.067
00:30:26.533 : en:00:30:26.533
00:34:43.290 : en:00:34:43.290
00:39:18.565 : en:00:39:18.565
00:41:47.505 : en:00:41:47.505
00:46:14.772 : en:00:46:14.772
00:49:42.730 : en:00:49:42.730
00:52:46.830 : en:00:52:46.830
00:54:50.496 : en:00:54:50.496
00:59:21.558 : en:00:59:21.558
01:02:43.051 : en:01:02:43.051
01:07:04.187 : en:01:07:04.187
01:08:38.239 : en:01:08:38.239
01:15:24.895 : en:01:15:24.895
01:18:14.773 : en:01:18:14.773
01:22:11.927 : en:01:22:11.927
01:26:22.511 : en:01:26:22.511
01:31:17.472 : en:01:31:17.472
01:34:38.214 : en:01:34:38.214

pb.wtf



Скачать Порочные игры через торрент http://pic.kartinco.top/images/3/n4afitg4jr.jpg Скачать фильм Порочные игры через торрент бесплантно в хорошем качестве Описание: История повествует про необычную девушку. У нее в жизни начались резкие изменения — сначала погибает отец, а потом его место ... 9.9 10 10
Info! Золотая раздача, скачанное не засчитывается.
Торрент: Зарегистрирован [2013-07-09 20:00] · скачан: 144 раз
Статус: √ проверено
Размер: 15.23 GB
Как cкачать? Как скачать Порочные игры через торрент | qTorrent

% Раздел Тема Автор DL S | L
Фильмы с авторской озвучкой [ 2.05 GB ] Порочные игры / Стокер / Stoker [2013 BDRip] 2x[AVO] killermax2013 Скачать
1 | 0
Фильмы 2013 [DVDrip, WEB-DLRip, HDrip] [ 2.05 GB ] Порочные игры / Стокеры / Stoker [2013 BDRip лицензия] Seedtank Скачать
1 | 0
Фильмы (Blu-ray, BD-Remux, HDDVD) [ 28.78 GB ] Порочные игры / Stoker [ 2013 BD Remux ] MVO+AVO+Original Ворон Скачать
1 | 0
Фильмы 2013 [DVDrip, WEB-DLRip, HDrip] [ 1.46 GB ] Порочные игры / Stoker [2013 BDRip-AVC лицензия] МАКС1 Скачать
1 | 0
Фильмы 2013 [DVDrip, WEB-DLRip, HDrip] [ 1.46 GB ] Порочные игры / Стокеры / Stoker [2013 HDRip лицензия] Seedtank Скачать
1 | 0

28-11-2019 20:33  

Отключить всю рекламу на сайте

10-07-2013 03:37 Порочные игры Скачать торрент  

Как фильм то?pb.wtf



14-07-2013 18:51 Порочные игры Скачать торрент  

Цитата:

spec-100 писал(а):

Как фильм то?

Муть какая-то pb.wtf



29-08-2013 11:35 Порочные игры Скачать торрент  

поддайте газку pb.wtf



    Дорогой пользователь! Огромная просьба, поблагодарите релизера, оцените раздачу и оставьте свои комментарий, если Вы скачали Порочные игры через торрент бесплатно! Внесите свою лепту в развитие PiratBit!
    Комментировать посты могут только пользователи прошедшие не сложную регистрацию
    Показать сообщения:    

    Порочные игры через торрент
    Скачать бесплатно Порочные игры
    Порочные игры скачать торрент
    Порочные игры смотреть онлайн
    Cкачать фильм Порочные игры бесплатно
    Порочные игры скачать торрент в хорошем качестве
    Порочные игры смотреть онлайн бесплатно в хорошем качестве


    Вы не можете начинать темы
    Вы не можете отвечать на сообщения
    Вы не можете редактировать свои сообщения
    Вы не можете удалять свои сообщения
    Вы не можете голосовать в опросах
    Вы не можете прикреплять файлы к сообщениям
    Вы можете скачивать файлы