2 сезон

iTunes

MVO

1

2 сезон

iTunes

1 сезон

1 сезон

RePack

30

Новинка

ВАЖНО

ИГРА 18+

pack

RePack

MK11
pack

Легкие деньги

RePack

jed

RePack

fifa19

RePack

RDR2

RePack

NEED FOR SPEED™ PAYBACK

4 сезон

9 сезон

Бесстыжие 9 сезон

Все сериалы

все сериалы на PB.wtf

RePack

FAR CRY 5

Anonymous, добрый вечер, мы не успеваем собрать деньги на оплату серверов за декабрь и январь, помогите нам пожалуйста в это трудное время. В качестве благодарности мы отключим Вам всю рекламу на сайте (укажите свой ник в строку Ваше имя)!

×
  
Magnet ссылка

Росомаха: Бессмертный в 3D / The Wolverine in 3D (Джеймс Мэнголд) [Theatrical] [2013 г., Фантастика, Фэнтези, Боевик, Приключения, BDRip 1080p, Дубляж, Лицензия] Анаглиф (Дюбуа) pb.wtf

Росомаха: Бессмертный в 3D через торрент pb.wtf

Размер: 10.1 GB | Добавлен: 7 лет 2 мес. назад | Торрент скачан:174 раза
Скачать  

22-11-2013 10:40 Росомаха: Бессмертный в 3D Скачать торрент  

Росомаха: Бессмертный в 3D / The Wolverine in 3D
Год выпуска: 2013
Страна: Австралия, США
Жанр: Фантастика, Фэнтези, Боевик, Приключения,
Продолжительность: 02:06:08
Перевод: Дубляж, Лицензия
Субтитры: Russian, Ukrainian, English

Режиссер: Джеймс Мэнголд
Продюссер: Хью Джекман, Хатч Паркер, Лорен Шулер Доннер,
Сценарий: Марк Бомбэк, Скотт Фрэнк

Бюджет: $120 000 000
Премьера в мире: 16 июля 2013,



В ролях: Хью Джекман, Тао Окамото, Рила Фукусима, Светлана Ходченкова, Уилл Юн Ли, Харукико Яманоути, Хироюки Санада, Брайан Ти, Кен Ямамура, Фамке Янссен
Роли дублировали: Александр Рахленко, Светлана Ходченкова, Пётр Иващенко, Владимир Антоник, Рудольф Панков,

Описание: Новая глава приключений Росомахи развернётся в Японии, где Логану предстоит выяснить, что острее — когти Росомахи или меч Серебряного Самурая.

Доп. информация: Театральная версия
Формат 3D: Анаглиф (Дюбуа)



Качество: BDRip 1080p
Формат: MKV
Видео кодек: H.264
Аудио кодек: AC3
Видео: x264, 1920 x 1080, (16:9) 23,976 fps, 10,2 Мбит/сек, (0.205 bit/pixel)
Аудио#1: Русский / AC3 / 48 KHz / 6 ch / 384 Kbps
Аудио#2: Английский / AC3 / 48 KHz / 6 ch / 640 Kbps



скриншот   скриншот   скриншот   скриншот   скриншот   скриншот  
Общее
Уникальный идентификатор : 179627123024771084478613977481140252026 (0x8722ECEDF1F034FE8D4728401BAC2D7A)
Полное имя : D: The.Wolverine(2013)3D(Anaglyph_Dubois)Theatrical.mkv
Формат : Matroska
Версия формата : Version 4 / Version 2
Размер файла : 10,1 Гбайт
Продолжительность : 2 ч. 6 м.
Общий поток : 11,5 Мбит/сек
Название фильма : Росомаха: Бессмертный / The Wolverine (2013) 3D (Anaglyph_Dubois) Theatrical
Дата кодирования : UTC 2013-11-21 07:02:44
Программа кодирования : mkvmerge v6.2.0 ('Promised Land') built on Apr 28 2013 12:22:01
Библиотека кодирования : libebml v1.3.0 + libmatroska v1.4.0

Видео
Идентификатор : 1
Формат : AVC
Формат/Информация : Advanced Video Codec
Профиль формата : Main@L4.0
Параметр CABAC формата : Нет
Параметр ReFrames формата : 4 кадра
Идентификатор кодека : V_MPEG4/ISO/AVC
Продолжительность : 2 ч. 6 м.
Битрейт : 10,2 Мбит/сек
Ширина : 1920 пикселей
Высота : 1080 пикселей
Соотношение сторон : 16:9
Режим частоты кадров : Постоянный
Частота кадров : 23,976 кадра/сек
Цветовое пространство : YUV
Субдискретизация насыщенности : 4:2:0
Битовая глубина : 8 бит
Тип развёртки : Прогрессивная
Бит/(Пиксели*Кадры) : 0.205
Размер потока : 9,00 Гбайт (89%)
Заголовок : The Wolverine (2013) 3D Theatrical (Anaglyph_Dubois).mkv
Библиотека кодирования : x264 core 130 r2274bm c832fe9
Настройки программы : cabac=0 / ref=1 / deblock=0:1:1 / analyse=0:0 / me=dia / subme=0 / psy=1 / psy_rd=0.40:0.00 / mixed_ref=0 / me_range=16 / chroma_me=1 / trellis=0 / 8x8dct=0 / cqm=0 / deadzone=21,11 / fast_pskip=1 / chroma_qp_offset=0 / threads=3 / lookahead_threads=1 / sliced_threads=0 / nr=0 / decimate=1 / interlaced=0 / bluray_compat=0 / constrained_intra=0 / bframes=2 / b_pyramid=2 / b_adapt=0 / b_bias=0 / direct=1 / weightb=0 / open_gop=0 / weightp=0 / keyint=250 / keyint_min=23 / scenecut=0 / intra_refresh=0 / rc=crf / mbtree=0 / crf=19.2 / qcomp=0.60 / qpmin=0 / qpmax=69 / qpstep=4 / ip_ratio=1.40 / pb_ratio=1.30 / aq=0
Язык : English
Default : Да
Forced : Нет

Аудио #1
Идентификатор : 2
Формат : AC-3
Формат/Информация : Audio Coding 3
Расширение режима : CM (complete main)
Параметр Endianness формата : Big
Идентификатор кодека : A_AC3
Продолжительность : 2 ч. 6 м.
Вид битрейта : Постоянный
Битрейт : 384 Кбит/сек
Каналы : 6 каналов
Расположение каналов : Front: L C R, Side: L R, LFE
Частота : 48,0 КГц
Битовая глубина : 16 бит
Метод сжатия : С потерями
Задержка видео : -292 мс.
Размер потока : 346 Мбайт (3%)
Заголовок : Dub | DD 5.1 @ 384 kbps - BD EUR
Язык : Russian
Default : Да
Forced : Да

Аудио #2
Идентификатор : 3
Формат : AC-3
Формат/Информация : Audio Coding 3
Расширение режима : CM (complete main)
Параметр Endianness формата : Big
Идентификатор кодека : A_AC3
Продолжительность : 2 ч. 6 м.
Вид битрейта : Постоянный
Битрейт : 640 Кбит/сек
Каналы : 6 каналов
Расположение каналов : Front: L C R, Side: L R, LFE
Частота : 48,0 КГц
Битовая глубина : 16 бит
Метод сжатия : С потерями
Задержка видео : -292 мс.
Размер потока : 577 Мбайт (6%)
Заголовок : Original - BD3D
Язык : English
Default : Нет
Forced : Нет

Текст #1
Идентификатор : 4
Формат : UTF-8
Идентификатор кодека : S_TEXT/UTF8
Идентификатор кодека/Информация : UTF-8 Plain Text
Заголовок : Форсированные на японскую речь
Язык : Russian
Default : Да
Forced : Да

Текст #2
Идентификатор : 5
Формат : UTF-8
Идентификатор кодека : S_TEXT/UTF8
Идентификатор кодека/Информация : UTF-8 Plain Text
Заголовок : Full
Язык : Russian
Default : Нет
Forced : Нет

Текст #3
Идентификатор : 6
Формат : UTF-8
Идентификатор кодека : S_TEXT/UTF8
Идентификатор кодека/Информация : UTF-8 Plain Text
Язык : Ukrainian
Default : Нет
Forced : Нет

Текст #4
Идентификатор : 7
Формат : UTF-8
Идентификатор кодека : S_TEXT/UTF8
Идентификатор кодека/Информация : UTF-8 Plain Text
Заголовок : Forced
Язык : English
Default : Нет
Forced : Нет

Текст #5
Идентификатор : 8
Формат : UTF-8
Идентификатор кодека : S_TEXT/UTF8
Идентификатор кодека/Информация : UTF-8 Plain Text
Заголовок : Full
Язык : English
Default : Нет
Forced : Нет

Меню
00:00:00.000 : :1
00:05:03.720 : :2
00:07:39.668 : :3
00:08:40.437 : :4
00:10:25.500 : :5
00:13:56.794 : :6
00:16:49.300 : :7
00:19:13.069 : :8
00:22:03.739 : :9
00:26:38.305 : :10
00:28:53.398 : :11
00:30:21.403 : :12
00:33:43.146 : :13
00:38:08.244 : :14
00:42:42.310 : :15
00:44:19.073 : :16
00:47:06.741 : :17
00:52:38.280 : :18
00:54:37.316 : :19
01:00:06.478 : :20
01:06:16.222 : :21
01:11:36.959 : :22
01:16:25.206 : :23
01:19:30.808 : :24
01:22:34.575 : :25
01:27:33.206 : :26
01:30:37.140 : :27
01:33:00.033 : :28
01:36:33.204 : :29
01:40:14.217 : :30
01:43:04.512 : :31
01:46:07.570 : :32
01:51:06.076 : :33
01:53:01.483 : :34
01:55:50.777 : :35
01:57:21.451 : :36

pb.wtf



Скачать Росомаха: Бессмертный в 3D через торрент https://pic.kartinco.top/images/6/d18sr.jpg Скачать фильм Росомаха: Бессмертный в 3D через торрент бесплантно в хорошем качестве Описание: Новая глава приключений Росомахи развернётся в Японии, где Логану предстоит выяснить, что острее — когти Росомахи или меч ... 10 10 9
Info! Золотая раздача, скачанное не засчитывается.
Торрент: Зарегистрирован [2013-11-22 10:40] · скачан: 174 раз
Статус: √ проверено
Размер: 10.1 GB
Как cкачать? Как скачать Росомаха: Бессмертный в 3D через торрент | UTorrent

% Раздел Тема Автор DL S | L
3D Фильмы [ 16.91 GB ] Росомаха: Бессмертный в 3Д / The Wolverine 3D [2013 BDrip 1080p]Full OverUnder / Вертикальная стереопара serega768 Скачать
2 | 0

28-11-2019 20:33  

Отключить всю рекламу на сайте

    Дорогой пользователь! Огромная просьба, поблагодарите релизера, оцените раздачу и оставьте свои комментарий, если Вы скачали Росомаха: Бессмертный в 3D через торрент бесплатно! Внесите свою лепту в развитие PiratBit!
    Комментировать посты могут только пользователи прошедшие не сложную регистрацию
    Показать сообщения:    

    Росомаха: Бессмертный в 3D через торрент
    Скачать бесплатно Росомаха: Бессмертный в 3D
    Росомаха: Бессмертный в 3D скачать торрент
    Росомаха: Бессмертный в 3D смотреть онлайн
    Cкачать фильм Росомаха: Бессмертный в 3D бесплатно
    Росомаха: Бессмертный в 3D скачать торрент в хорошем качестве
    Росомаха: Бессмертный в 3D смотреть онлайн бесплатно в хорошем качестве


    Вы не можете начинать темы
    Вы не можете отвечать на сообщения
    Вы не можете редактировать свои сообщения
    Вы не можете удалять свои сообщения
    Вы не можете голосовать в опросах
    Вы не можете прикреплять файлы к сообщениям
    Вы можете скачивать файлы