Доктор Стрэндж

Лицензия

Добыча

Дубляж

Дом дракона

1 сезон

Тор

Дубляж

В эфире

Дубляж

Там, где раки поют

MVO

Властелин колец

1 сезон

Ultimate

pack

Рекомендуем

30

Пиратка

ВАЖНО

ВАЖНО

Ghostwire

Пиратка

jed

RePack

nioh2

RePack

RDR2

RePack

NEED FOR SPEED™ PAYBACK

RePack

скачать торрент

Кинопоиск HD

Острые козырьки 6 сезон

6 сезон

FAR CRY 6

RePack

скачать торрент

Лицензия

скачать торрент

MVO

1

1 сезон

скачать торрент

1 сезон

скачать торрент

Лицензия

  

Сумерки. Сага. Рассвет: Часть 1 / The Twilight Saga: Breaking Dawn - Part 1 (Билл Кондон) [2011 г., фэнтези, драма, мелодрама, BDRip 720p, Дубляж, лицензия]

Сумерки. Сага. Рассвет: Часть 1 через торрент pb.wtf

Размер: 5.78 GB | Добавлен: 9 лет 8 мес. назад | Торрент скачан:328 раз
Смотреть онлайн | Скачать   

14-03-2013 05:22 Сумерки. Сага. Рассвет: Часть 1 Скачать торрент  



Сумерки. Сага. Рассвет: Часть 1 / The Twilight Saga: Breaking Dawn - Part 1
«Вечность - это только начало»

Год выпуска: 2011
Страна: США
Жанр: фэнтези, драма, мелодрама,
Продолжительность: 01:57:08
Перевод: Дубляж, Лицензия
Тип релиза: Лицензия
Русские субтитры: нет

Режиссер: Билл Кондон
Продюссер: Вик Годфри, Стефани Майер, Карен Розенфельт
Сценарий: Мелисса Розенберг, Стефани Майер

Бюджет: $110 000 000

Мировой рейтинг IMDB 4.80 (116 107)


В ролях: Кристен Стюарт, Роберт Паттинсон, Тэйлор Лотнер, Билли Бёрк, Питер Фачинелли, Элизабет Ризер, Келлан Латс, Никки Рид, Джексон Рэтбоун, Эшли Грин,

Описание: В четвертой части Белла Свон оказывается перед непростым выбором — сохранить жизнь себе или своему ребенку (наполовину вампиру, наполовину человеку). Она решает оставить малыша, но Эдвард и остальные члены семьи Каллен категорически против.

Качество: BDRip 720p
Формат: MKV
Видео кодек: H.26x
Аудио кодек: AC3/DTS ES
Видео: 1280x536 (2.35:1), 23.976 fps, 5 174 Kbps (0.315 bit/pixel)
Аудио#1: AC-3, 48.0 KHz, 6 ch, 384 Kbps, CBR (Russian)
Аудио#2: DTS ES, 48.0 KHz, 6 ch, 1 510 Kbps, CBR (English)
Субтитры: English, English











Общее
Уникальный идентификатор : 249252830796932583833719145843632991226 (0xBB84595BB3AEDB1B8BA7A7EA56356BFA)
Полное имя : E:Сумерки. Сага. Рассвет Часть 1.2011.x264.BDRip.720p.mkv
Формат : Matroska
Версия формата : Version 2
Размер файла : 5,78 Гбайт
Продолжительность : 1 ч. 57 м.
Общий поток : 7063 Кбит/сек
Дата кодирования : UTC 2012-02-10 18:57:43
Программа кодирования : mkvmerge v4.6.0 ('Still Crazy After All These Years') сборка от Mar 10 2011 02:50:32
Библиотека кодирования : libebml v1.2.0 + libmatroska v1.1.0

Видео
Идентификатор : 1
Формат : AVC
Формат/Информация : Advanced Video Codec
Профиль формата : [email protected]
Параметр CABAC формата : Да
Параметр ReFrames формата : 5 кадров
Режим смешивания : Header stripping
Идентификатор кодека : V_MPEG4/ISO/AVC
Продолжительность : 1 ч. 57 м.
Битрейт : 5174 Кбит/сек
Ширина : 1280 пикселей
Высота : 536 пикселей
Соотношение сторон : 2,40:1
Режим частоты кадров : Постоянный
Частота кадров : 23,976 кадра/сек
Цветовое пространство : YUV
Субдискретизация насыщенности : 4:2:0
Битовая глубина : 8 бит
Тип развёртки : Прогрессивная
Бит/(Пиксели*Кадры) : 0.315
Размер потока : 4,12 Гбайт (71%)
Библиотека кодирования : x264 core 120 r2146 bcd41db
Настройки программы : cabac=1 / ref=5 / deblock=1:0:0 / analyse=0x3:0x133 / me=umh / subme=7 / psy=1 / psy_rd=1.00:0.00 / mixed_ref=1 / me_range=16 / chroma_me=1 / trellis=1 / 8x8dct=1 / cqm=0 / deadzone=21,11 / fast_pskip=0 / chroma_qp_offset=-2 / threads=12 / sliced_threads=0 / nr=0 / decimate=1 / interlaced=0 / bluray_compat=0 / constrained_intra=0 / bframes=3 / b_pyramid=2 / b_adapt=2 / b_bias=0 / direct=3 / weightb=1 / open_gop=0 / weightp=2 / keyint=250 / keyint_min=23 / scenecut=40 / intra_refresh=0 / rc_lookahead=50 / rc=2pass / mbtree=1 / bitrate=5174 / ratetol=1.0 / qcomp=0.60 / qpmin=0 / qpmax=69 / qpstep=4 / cplxblur=20.0 / qblur=0.5 / ip_ratio=1.40 / aq=1:1.00
Default : Да
Forced : Нет

Аудио #1
Идентификатор : 2
Формат : AC-3
Формат/Информация : Audio Coding 3
Расширение режима : CM (complete main)
Параметр Endianness формата : Big
Режим смешивания : Header stripping
Идентификатор кодека : A_AC3
Продолжительность : 1 ч. 57 м.
Вид битрейта : Постоянный
Битрейт : 384 Кбит/сек
Каналы : 6 каналов
Расположение каналов : Front: L C R, Side: L R, LFE
Частота : 48,0 КГц
Битовая глубина : 16 бит
Метод сжатия : С потерями
Размер потока : 322 Мбайт (5%)
Язык : Russian
Default : Да
Forced : Да

Аудио #2
Идентификатор : 3
Формат : DTS
Формат/Информация : Digital Theater Systems
Профиль формата : ES
Режим : 16
Параметр Endianness формата : Big
Режим смешивания : Header stripping
Идентификатор кодека : A_DTS
Продолжительность : 1 ч. 57 м.
Вид битрейта : Постоянный
Битрейт : 1509 Кбит/сек
Каналы : 6 каналов
Расположение каналов : Front: L C R, Side: L R, LFE
Частота : 48,0 КГц
Битовая глубина : 24 бит
Метод сжатия : С потерями
Задержка видео : 11 мс.
Размер потока : 1,23 Гбайт (21%)
Язык : English
Default : Нет
Forced : Нет

Текст #1
Идентификатор : 4
Формат : UTF-8
Идентификатор кодека : S_TEXT/UTF8
Идентификатор кодека/Информация : UTF-8 Plain Text
Язык : English
Default : Нет
Forced : Нет

Текст #2
Идентификатор : 5
Формат : UTF-8
Идентификатор кодека : S_TEXT/UTF8
Идентификатор кодека/Информация : UTF-8 Plain Text
Язык : English
Default : Нет
Forced : Нет


Сумерки. Сага. Рассвет: Часть 1 скачать торрент









Скачать Сумерки. Сага. Рассвет: Часть 1 через торрент https://pic1.kartinco.top/images/21/iommhwytld.png Скачать, смотреть онлайн Сумерки. Сага. Рассвет: Часть 1 бесплантно в хорошем качестве Описание: В четвертой части Белла Свон оказывается перед непростым выбором — сохранить жизнь себе или своему ребенку (наполовину вампиру, ... 8.6 10 14
Info! Золотая раздача, скачанное не засчитывается.
Торрент: Зарегистрирован [2013-03-14 05:22] · скачан: 328 раз
Статус: √ проверено
Размер: 5.78 GB
Как cкачать? Как скачать Сумерки. Сага. Рассвет: Часть 1 через торрент | UTorrent

% Раздел Тема Автор DL S | L
Фильмы [HD 720p, 1080p] (Хороший звук DUB, MVO) [ 6 GB ] Сумерки. Сага. Рассвет - Часть 1 / The Twilight Saga: Breaking Dawn - Part 1 | Лицензия | 1080p, HEVC (10bit Мичман37 Скачать
1 | 0
Фильмы 2011 [ 2.17 GB ] Сумерки. Сага. Рассвет: Часть 1 / The Twilight Saga: Breaking Dawn - Part 1 | | HDRip, лицензия Ayer Скачать
1 | 0
Фильмы [HD 720p, 1080p] (Хороший звук DUB, MVO) [ 9.32 GB ] Сумерки. Сага. Рассвет: Часть 1 / The Twilight Saga: Breaking Dawn - Part 1 | | 1080p ~Relizer~ Скачать
1 | 0
Фильмы 2011 [ 1.37 GB ] Сумерки. Сага. Рассвет: Часть 1 / The Twilight Saga: Breaking Dawn - Part 1 | | HDRip, лицензия SD Скачать
1 | 0
Фильмы (DVD фильмы) [ 15.4 GB ] Сумерки. Сага. Рассвет: Часть 1 / The Twilight Saga: Breaking Dawn - Part 1 | | Сумерки. Сага. Рассвет: Часть 1 / The Twilight Saga: Breaking Dawn - Part 1 (Билл Кондон / Bill Condon voovaz Скачать
1 | 0

28-11-2019 20:33  


Отключить вcю реклaмy на сайте, в т.ч. и в плеере онлайн просмотра!

    Дорогой пользователь! Огромная просьба, поблагодарите релизера, оцените раздачу и оставьте свои комментарий, если Вы скачали Сумерки. Сага. Рассвет: Часть 1 через торрент бесплатно!!
    Комментировать посты могут только пользователи прошедшие не сложную регистрацию
    Показать сообщения:    


    Сумерки. Сага. Рассвет: Часть 1 через торрент
    Скачать бесплатно Сумерки. Сага. Рассвет: Часть 1
    Сумерки. Сага. Рассвет: Часть 1 скачать торрент
    Сумерки. Сага. Рассвет: Часть 1 смотреть онлайн
    Cкачать фильм Сумерки. Сага. Рассвет: Часть 1 бесплатно
    Сумерки. Сага. Рассвет: Часть 1 скачать торрент в хорошем качестве
    Сумерки. Сага. Рассвет: Часть 1 смотреть онлайн бесплатно в хорошем качестве
    Вы не можете начинать темы
    Вы не можете отвечать на сообщения
    Вы не можете редактировать свои сообщения
    Вы не можете удалять свои сообщения
    Вы не можете голосовать в опросах
    Вы не можете прикреплять файлы к сообщениям
    Вы можете скачивать файлы
    Сумерки. Сага. Рассвет: Часть 1 / The Twilight Saga: Breaking Dawn - Part 1 [2011 г., фэнтези, драма, мелодрама, BDRip 720p, Дубляж, лицензия] смотреть онлайн, скачать торрент picoco.icu