Ссылка на приватное зеркало нашего сайта всего за 1$. Внимание количество ограничено!!!

2 сезон

iTunes

1 сезон

1

2 сезон

2 сезон

iTunes

1 сезон

RePack

30

Ultimate

ВАЖНО

ИГРА 18+

pack

RePack

MK11
pack

Забери бонус

RePack

jed

!!Акция!!

Alien_Rage

RePack

fifa19

RePack

Assassins Creed: Odyssey

RePack

NEED FOR SPEED™ PAYBACK

4 сезон

9 сезон

Бесстыжие 9 сезон

Все сериалы

все сериалы на PB.wtf

RePack

FAR CRY 5
  

Форсаж 6 / Fast & Furious 6 (Джастин Лин) [2013 г., боевик, триллер, драма, криминал, BD-Remux (TheatricalCut), Дубляж, Лицензия|iTunes Russia|] pb.wtf

Форсаж 6 через торрент pb.wtf

Размер: 20.71 GB | Добавлен: 7 лет 2 мес. назад | Торрент скачан:301 раз
Скачать  

06-09-2013 06:40 Форсаж 6 Скачать торрент  

Форсаж 6 / Fast & Furious 6
Год выпуска: 2013
Страна: США
Жанр: боевик, триллер, драма, криминал,
Продолжительность: 02:10:07
Перевод: Дубляж, Лицензия| iTunes Russia|
Субтитры: Russian (FORCED), Russian (FULL-LENGTH), English

Режиссер: Джастин Лин
Продюссер: Вин Дизель, Нил Х. Мориц, Клэйтон Таунсенд
Сценарий: Крис Морган, Гэри Скотт Томпсон

Бюджет: $160 000 000
Премьера в мире: 7 мая 2013


http://www.kinopoisk.ru/film/594736/

В ролях: Мишель Родригес, Вин Дизель, Пол Уокер, Джордана Брюстер, Дуэйн Джонсон, Эльза Патаки, Люк Эванс, Джина Карано, Джейсон Стэйтем, Ли Асквит-Коу,

Описание: После того, как Доминик и Брайн побывали в Рио, где они ограбили и свергли империю вора в законе, их команда получила 100 миллионов, и наши герои оказались разбросаны по всему миру. Но их привычка вечно жить в бегах не дает им покоя.Между тем, Хоббс отслеживал организацию смертельно опасных наемников-водителей по двенадцати странам. Единственный способ остановить эту криминальную группу, это превзойти их на улицах, поэтому Хоббс просит Дома собрать его элитную команду в Лондоне. За это он обещает полное помилование для Доминика и его друзей, чтобы они смогли наконец вернуться домой к своей семье.

Качество: BD-Remux
Формат: MKV
Видео кодек: AVC
Аудио кодек: DTS, AC3
Видео: AVC, 20.4 Мбит/сек, 1920x1080, 23.976 кадр/сек
Аудио#1: AC3, 384 Кбит/сек, 6 каналов, 48,0 КГц - Rus [Dub, iTunes Russia]
Аудио#2: DTS, 1510 Кбит/с, 6 каналов, 48 КГц: Английский

Автор рипа: Userman4ik
General
Unique ID : 210823167334396922034202204216331256964 (0x9E9B10A9FFE3E69198DA294B5A0AC484)
Complete name : D:1BDMVSTREAMForsaj6.Remuxe(TheatricalCut).mkv
Format : Matroska
Format version : Version 4 / Version 2
File size : 20.7 GiB
Duration : 2h 10mn
Overall bit rate mode : Variable
Overall bit rate : 22.8 Mbps
Encoded date : UTC 2013-09-06 05:45:57
Writing application : mkvmerge v6.3.0 ('You can't stop me!') built on Jun 28 2013 20:09:41
Writing library : libebml v1.3.0 + libmatroska v1.4.0

Video
ID : 1
Format : AVC
Format/Info : Advanced Video Codec
Format profile : High@L4.1
Format settings, CABAC : Yes
Format settings, ReFrames : 4 frames
Codec ID : V_MPEG4/ISO/AVC
Duration : 2h 10mn
Bit rate mode : Variable
Bit rate : 20.4 Mbps
Maximum bit rate : 30.0 Mbps
Width : 1 920 pixels
Height : 1 080 pixels
Display aspect ratio : 16:9
Frame rate mode : Constant
Frame rate : 23.976 fps
Color space : YUV
Chroma subsampling : 4:2:0
Bit depth : 8 bits
Scan type : Progressive
Bits/(Pixel*Frame) : 0.411
Stream size : 18.6 GiB (90%)
Default : Yes
Forced : No

Audio #1
ID : 2
Format : AC-3
Format/Info : Audio Coding 3
Mode extension : CM (complete main)
Format settings, Endianness : Big
Codec ID : A_AC3
Duration : 2h 10mn
Bit rate mode : Constant
Bit rate : 384 Kbps
Channel(s) : 6 channels
Channel positions : Front: L C R, Side: L R, LFE
Sampling rate : 48.0 KHz
Bit depth : 16 bits
Compression mode : Lossy
Delay relative to video : 24ms
Stream size : 357 MiB (2%)
Title : DUB 5.1 384kbps
Language : Russian
Default : Yes
Forced : No

Audio #2
ID : 3
Format : DTS
Format/Info : Digital Theater Systems
Mode : 16
Format settings, Endianness : Big
Codec ID : A_DTS
Duration : 2h 10mn
Bit rate mode : Constant
Bit rate : 1 509 Kbps
Channel(s) : 6 channels
Channel positions : Front: L C R, Side: L R, LFE
Sampling rate : 48.0 KHz
Bit depth : 24 bits
Compression mode : Lossy
Stream size : 1.37 GiB (7%)
Language : English
Default : No
Forced : No

Text #1
ID : 4
Format : UTF-8
Codec ID : S_TEXT/UTF8
Codec ID/Info : UTF-8 Plain Text
Title : FORCED
Language : Russian
Default : Yes
Forced : No

Text #2
ID : 5
Format : UTF-8
Codec ID : S_TEXT/UTF8
Codec ID/Info : UTF-8 Plain Text
Title : FULL-LENGTH
Language : Russian
Default : No
Forced : No

Text #3
ID : 6
Format : UTF-8
Codec ID : S_TEXT/UTF8
Codec ID/Info : UTF-8 Plain Text
Title : ORIGINAL
Language : English
Default : No
Forced : No

Menu
00:00:00.000 : en:00:00:00.000
00:04:22.000 : en:00:04:22.000
00:10:21.000 : en:00:10:21.000
00:15:37.000 : en:00:15:37.000
00:19:20.000 : en:00:19:20.000
00:24:34.000 : en:00:24:34.000
00:30:25.000 : en:00:30:25.000
00:36:31.000 : en:00:36:31.000
00:43:45.000 : en:00:43:45.000
00:50:23.000 : en:00:50:23.000
00:56:26.000 : en:00:56:26.000
01:04:09.000 : en:01:04:09.000
01:09:30.000 : en:01:09:30.000
01:18:29.000 : en:01:18:29.000
01:24:56.000 : en:01:24:56.000
01:34:09.000 : en:01:34:09.000
01:41:04.000 : en:01:41:04.000
01:47:44.000 : en:01:47:44.000
01:56:54.000 : en:01:56:54.000
02:01:40.000 : en:02:01:40.000

pb.wtf



Скачать Форсаж 6 через торрент http://pic.kartinco.top/images/3/1r3ab9fddn.jpg Скачать фильм Форсаж 6 через торрент бесплантно в хорошем качестве Описание: После того, как Доминик и Брайн побывали в Рио, где они ограбили и свергли империю вора в законе, их команда получила 100 ... 9.9 10 11
Info! Золотая раздача, скачанное не засчитывается.
Торрент: Зарегистрирован [2013-09-06 06:40] · скачан: 301 раз
Статус: √ проверено
Размер: 20.71 GB
Как cкачать? Как скачать Форсаж 6 через торрент | qTorrent



Последний раз редактировалось: Userman4ik (2013-09-07 17:13), всего редактировалось 3 раз(а)

28-11-2019 20:33  

Отключить всю рекламу на сайте

06-09-2013 06:49 Форсаж 6 Скачать торрент  

хороший фильм даж очень былв кино на нем только скорости нетpb.wtf



06-09-2013 09:26 Форсаж 6 Скачать торрент  

Спасибо КЭП!!!
Риповал сам, так что думаю пока аналога нет.....со скоростью проблема, провайдер глючитpb.wtf



06-09-2013 09:56 Форсаж 6 Скачать торрент  

Userman4ik
Молодец хороший рип, укажи что ты автор.pb.wtf



07-09-2013 17:11 Форсаж 6 Скачать торрент  

А че бы в топ не кинуть? :)pb.wtf



12-09-2013 15:15 Форсаж 6 Скачать торрент  

Половина скринов смазанные, как насчёт сэмпла?pb.wtf



24-01-2015 21:25 Форсаж 6 Скачать торрент  

Userman4ik, привет,дай докачать форсаж 6,плиз))pb.wtf



    Дорогой пользователь! Огромная просьба, поблагодарите релизера, оцените раздачу и оставьте свои комментарий, если Вы скачали Форсаж 6 через торрент бесплатно! Внесите свою лепту в развитие PiratBit!
    Комментировать посты могут только пользователи прошедшие не сложную регистрацию
    Показать сообщения:    

    Форсаж 6 через торрент
    Скачать бесплатно Форсаж 6
    Форсаж 6 скачать торрент
    Форсаж 6 смотреть онлайн
    Cкачать фильм Форсаж 6 бесплатно
    Форсаж 6 скачать торрент в хорошем качестве
    Форсаж 6 смотреть онлайн бесплатно в хорошем качестве


    Вы не можете начинать темы
    Вы не можете отвечать на сообщения
    Вы не можете редактировать свои сообщения
    Вы не можете удалять свои сообщения
    Вы не можете голосовать в опросах
    Вы не можете прикреплять файлы к сообщениям
    Вы можете скачивать файлы