Ссылка на приватное зеркало нашего сайта всего за 1$. Внимание количество ограничено!!!

2 сезон

iTunes

1 сезон

1

iTunes

iTunes

iTunes

1 сезон

RePack

30

ИГРА 18+

pack

ВАЖНО

!!Акция!!

Alien_RageХит недели

RePack

MK11
pack

Забери бонус

RePack

jed

!!Акция!!

Alien_Rage

RePack

fifa19

RePack

Assassins Creed: Odyssey

RePack

NEED FOR SPEED™ PAYBACK

4 сезон

9 сезон

Бесстыжие 9 сезон

Все сериалы

все сериалы на PB.wtf

RePack

FAR CRY 5
  

Форсаж 6 / Fast & Furious 6 [EXTENDED] (Джастин Лин) [2013 г., боевик, триллер, драма, криминал, BDRip 720p, DUB, Original, Commentary, Sub] pb.wtf

Форсаж 6 через торрент pb.wtf

Размер: 7.05 GB | Добавлен: 7 лет 1 мес. назад | Торрент скачан:172 раза
Скачать  

06-09-2013 07:31 Форсаж 6 Скачать торрент  

Форсаж 6 / Fast & Furious 6 [EXTENDED]
Год выпуска: 2013
Страна: США
Жанр: боевик, триллер, драма, криминал,
Продолжительность: 02:11:02
Перевод: Дубляж(iTunes Russia)
Субтитры: Russian (Forced+Extended), Russian (Extended), English

Режиссер: Джастин Лин



В ролях: Вин Дизель, Пол Уокер, Дуэйн Джонсон, Мишель Родригес, Люк Эванс, Тайриз Гибсон, Лудакрис, Санг Кенг, Галь Гадот, Джордана Брюстер,

Описание: После того как Доминик и Брайн побывали в Рио, где они ограбили и свергли империю вора в законе, их команда получила 100 миллионов, и наши герои оказались разбросаны по всему миру. Но их привычка вечно жить в бегах не даёт им покоя. Между тем, Хоббс отслеживал организацию смертельно опасных наёмников-водителей по двенадцати странам. Единственный способ остановить эту криминальную группу - это превзойти их на улицах, поэтому Хоббс просит Доминика собрать его элитную команду в Лондоне. За это он обещает полное помилование для Доминика и его друзей, чтобы они смогли наконец вернуться домой к своей семье.

Релиз подготовлен:
Примечание: Отсутвует приблизительно 1 минута перевода, она переведена субтитрами.
Качество: BDRip 720p
Формат: MKV
Видео кодек: AVC
Аудио кодек: AC3, DTS
Видео: Видео: 1280x544 at 23.976 fps, x264, ~5620 kbps avg
Аудио#1: Russian: 48 kHz, AC3, 3/2 (L,C,R,l,r) + LFE ch, ~384.00 kbps avg |Дубляж, iTunes Russia|
Аудио#2: English: 48 kHz, DTS, 3/2 (L,C,R,l,r) + LFE ch, ~1536.00 kbps avg
Аудио#3: English: 48 kHz, AC3, 2/0 (L,R) ch, ~192.00 kbps avg |Director's Commentary|




General
Complete name : Fast.and.Furious.6.2013.EXTENDED.720p.BluRay.Rus.2xEng.HDCLUB.mkv
Format : Matroska
File size : 7.05 GiB
Duration : 2h 11mn
Overall bit rate : 7 706 Kbps

Encoded date : UTC 2013-09-03 16:12:05
Writing application : mkvmerge v3.4.0 ('Rapunzel') built on May 15 2010 09:38:20
Writing library : libebml v0.8.0 + libmatroska v0.9.0

Video
ID : 1
Format : AVC
Format/Info : Advanced Video Codec
Format profile : High@L4.1
Format settings, CABAC : Yes
Format settings, ReFrames : 10 frames
Muxing mode : Container profile=Unknown@4.1
Codec ID : V_MPEG4/ISO/AVC
Duration : 2h 11mn
Bit rate : 5 620 Kbps
Width : 1 280 pixels
Height : 544 pixels
Display aspect ratio : 2.35:1
Frame rate : 23.976 fps
Color space : YUV
Chroma subsampling : 4:2:0
Bit depth : 8 bits
Scan type : Progressive
Bits/(Pixel*Frame) : 0.337
Stream size : 5.00 GiB (71%)
Title : Fast & Furious 6 (2013) [EXTENDED] - Release for HDCLUB
Writing library : x264 core 138 r2356 a1d3d17
Encoding settings : cabac=1 / ref=10 / deblock=1:-3:-3 / analyse=0x3:0x113 / me=umh / subme=10 / psy=1 / psy_rd=1.05:0.10 / mixed_ref=1 / me_range=32 / chroma_me=1 / trellis=2 / 8x8dct=1 / cqm=0 / deadzone=21,11 / fast_pskip=0 / chroma_qp_offset=-2 / threads=18 / lookahead_threads=1 / sliced_threads=0 / nr=0 / decimate=1 / interlaced=0 / bluray_compat=0 / constrained_intra=0 / bframes=5 / b_pyramid=2 / b_adapt=2 / b_bias=0 / direct=3 / weightb=1 / open_gop=0 / weightp=2 / keyint=250 / keyint_min=23 / scenecut=40 / intra_refresh=0 / rc=2pass / mbtree=0 / bitrate=5620 / ratetol=1.0 / qcomp=0.70 / qpmin=0 / qpmax=69 / qpstep=4 / cplxblur=20.0 / qblur=0.5 / ip_ratio=1.40 / pb_ratio=1.30 / aq=2:1.00
Language : English

Audio #1
ID : 2
Format : AC-3
Format/Info : Audio Coding 3
Mode extension : CM (complete main)
Codec ID : A_AC3
Duration : 2h 11mn
Bit rate mode : Constant
Bit rate : 384 Kbps
Channel(s) : 6 channels
Channel positions : Front: L C R, Side: L R, LFE
Sampling rate : 48.0 KHz
Bit depth : 16 bits
Stream size : 360 MiB (5%)
Title : AC3 5.1 @ 384 kbps - DUB, iTunes
Language : Russian

Audio #2
ID : 3
Format : DTS
Format/Info : Digital Theater Systems
Codec ID : A_DTS
Duration : 2h 11mn
Bit rate mode : Constant
Bit rate : 1 510 Kbps
Channel(s) : 6 channels
Channel positions : Front: L C R, Side: L R, LFE
Sampling rate : 48.0 KHz
Bit depth : 24 bits
Video delay : 11ms
Stream size : 1.38 GiB (20%)
Title : DTS 5.1 @ 1536 kbps
Language : English

Audio #3
ID : 4
Format : AC-3
Format/Info : Audio Coding 3
Format profile : Dolby Digital
Mode extension : CM (complete main)
Codec ID : A_AC3
Duration : 2h 11mn
Bit rate mode : Constant
Bit rate : 192 Kbps
Channel(s) : 2 channels
Channel positions : Front: L R
Sampling rate : 48.0 KHz
Bit depth : 16 bits
Stream size : 180 MiB (2%)
Title : AC3 2.0 @ 192 kbps - Director's Commentary
Language : English

Text #1
ID : 5
Format : UTF-8
Codec ID : S_TEXT/UTF8
Codec ID/Info : UTF-8 Plain Text
Title : Forced, iTunes
Language : Russian

Text #2
ID : 6
Format : UTF-8
Codec ID : S_TEXT/UTF8
Codec ID/Info : UTF-8 Plain Text
Title : iTunes
Language : Russian

Text #3
ID : 7
Format : UTF-8
Codec ID : S_TEXT/UTF8
Codec ID/Info : UTF-8 Plain Text
Language : English

Menu
00:00:00.000 : en:00:00:00.000
00:04:21.011 : en:00:04:21.011
00:10:19.118 : en:00:10:19.118
00:15:35.268 : en:00:15:35.268
00:19:18.574 : en:00:19:18.574
00:24:32.721 : en:00:24:32.721
00:30:23.405 : en:00:30:23.405
00:36:28.478 : en:00:36:28.478
00:44:01.305 : en:00:44:01.305
00:50:50.255 : en:00:50:50.255
00:56:54.327 : en:00:56:54.327
01:04:54.057 : en:01:04:54.057
01:10:14.293 : en:01:10:14.293
01:19:13.457 : en:01:19:13.457
01:25:41.178 : en:01:25:41.178
01:34:53.771 : en:01:34:53.771
01:41:48.561 : en:01:41:48.561
01:48:31.838 : en:01:48:31.838
01:57:48.812 : en:01:57:48.812
02:03:04.418 : en:02:03:04.418


Форсаж 6 скачать торрент


pb.wtf



Скачать Форсаж 6 через торрент http://pic.kartinco.top/images/3/y8ni74znm1.jpg Скачать фильм Форсаж 6 через торрент бесплантно в хорошем качестве Описание: После того как Доминик и Брайн побывали в Рио, где они ограбили и свергли империю вора в законе, их команда получила 100 ... 9.8 10 14
Info! Золотая раздача, скачанное не засчитывается.
Торрент: Зарегистрирован [2013-09-06 07:31] · скачан: 172 раз
Статус: √ проверено
Размер: 7.05 GB
Как cкачать? Как скачать Форсаж 6 через торрент | qTorrent

28-11-2019 20:33  

Отключить всю рекламу на сайте

09-09-2013 08:19 Форсаж 6 Скачать торрент  

фильм супер но не на весь екран разве у мя плеер такой....но недумаюpb.wtf



    Дорогой пользователь! Огромная просьба, поблагодарите релизера, оцените раздачу и оставьте свои комментарий, если Вы скачали Форсаж 6 через торрент бесплатно! Внесите свою лепту в развитие PiratBit!
    Комментировать посты могут только пользователи прошедшие не сложную регистрацию
    Показать сообщения:    

    Форсаж 6 через торрент
    Скачать бесплатно Форсаж 6
    Форсаж 6 скачать торрент
    Форсаж 6 смотреть онлайн
    Cкачать фильм Форсаж 6 бесплатно
    Форсаж 6 скачать торрент в хорошем качестве
    Форсаж 6 смотреть онлайн бесплатно в хорошем качестве


    Вы не можете начинать темы
    Вы не можете отвечать на сообщения
    Вы не можете редактировать свои сообщения
    Вы не можете удалять свои сообщения
    Вы не можете голосовать в опросах
    Вы не можете прикреплять файлы к сообщениям
    Вы можете скачивать файлы