Ссылка на приватное зеркало нашего сайта всего за 1$. Внимание количество ограничено!!!

2 сезон

iTunes

1 сезон

1

iTunes

iTunes

iTunes

1 сезон

RePack

30

ИГРА 18+

pack

ВАЖНО

!!Акция!!

Alien_RageХит недели

RePack

MK11
pack

Забери бонус

RePack

jed

!!Акция!!

Alien_Rage

RePack

fifa19

RePack

Assassins Creed: Odyssey

RePack

NEED FOR SPEED™ PAYBACK

4 сезон

9 сезон

Бесстыжие 9 сезон

Все сериалы

все сериалы на PB.wtf

RePack

FAR CRY 5
  

Человек из стали / Man of Steel (Зак Снайдер / Zack Snyder) [2013 г., Фантастика, Фэнтези, Боевик, Приключения, BDRip 1080p, Дубляж + Оригинал] (Crop) pb.wtf

Человек из стали через торрент pb.wtf

Размер: 8.78 GB | Добавлен: 6 лет 11 мес. назад | Торрент скачан:1073 раза
Скачать  

20-10-2013 10:54 Человек из стали Скачать торрент  

Человек из стали / Man of Steel
Год выпуска: 2013
Страна: США, Канада, Великобритания (Warner Bros. Pictures, Legendary Pictures, DC Entertainment, Syncopy)
Жанр: Фантастика, Фэнтези, Боевик, Приключения,
Продолжительность: 02:23:03
Перевод: Дубляж + Оригинал

Режиссер: Зак Снайдер / Zack Snyder
Продюссер: Кристофер Нолан, Чарльз Ровен, Дебора Снайдер,
Сценарий: Дэвид С. Гойер, Джерри Сигел, Джо Шустер,

Бюджет: $225 000 000
Премьера в мире: 10 июня 2013



В ролях: Генри Кавилл, Эми Адамс, Майкл Шеннон, Рассел Кроу, Дайан Лэйн, Кевин Костнер, Антье Трауэ, Лоренс Фишбёрн, Кристофер Мелони, Гарри Дж. Ленникс
Роли дублировали: Антон Савенков, Рамиля Искандер, Илья Исаев, Денис Беспалый, Анна Каменкова,

Описание: Кларк Кент / Кэл-Эл — молодой человек, который чувствует себя чужаком из-за своей невероятной силы. Много лет назад он был отправлен на Землю с развитой планеты Криптон, и теперь задается вопросом: зачем?
Воспитанный приемными родителями Мартой и Джонатаном Кентами, Кларк знает: обладать сверхспособностями — значит принимать сложные решения. Но когда человечество более всего нуждается в стабильности, оно подвергается нападению. Сможет ли герой восстановить мир, или воспользуется своей силой для того, чтобы окончательно его разрушить?


Доп. информация: Внимание: (CROP) Справа и слева видеоряд обрезан, что дает возможность просмотра на полный экран (без черных полос) на телевизорах с соотношением сторон 16:9 без изменения пропорций.

Качество: BDRip 1080p
Формат: MKV
Видео кодек: H.264
Аудио кодек: AC3
Видео: x264, 1920 x 1080, (16:9) 23.976 fps, 8004 Kbps, (0.161 bit/pixel)
Аудио#1: Русский / AC3 / 48 KHz / 6 ch / 384 Kbps
Аудио#2: Английский / AC3 / 48 KHz / 6 ch / 384 Kbps



скриншот   скриншот   скриншот   скриншот   скриншот   скриншот  
Общее
Уникальный идентификатор : 241068810974774492264955452226655241190 (0xB55C2A072348014DA6A6065F5A4443E6)
Полное имя : E:Man.of.Steel.2013.1080p.bluray.x264.(CROP).mkv
Формат : Matroska
Версия формата : Version 4 / Version 2
Размер файла : 8,78 Гбайт
Продолжительность : 2 ч. 23 м.
Общий поток : 8784 Кбит/сек
Название фильма : Человек из стали / Man of Steel (2013) BDRip 1080p (Crop) | Dub
Дата кодирования : UTC 2013-10-18 18:25:50
Программа кодирования : mkvmerge v6.2.0 ('Promised Land') built on Apr 28 2013 12:22:01
Библиотека кодирования : libebml v1.3.0 + libmatroska v1.4.0

Видео
Идентификатор : 1
Формат : AVC
Формат/Информация : Advanced Video Codec
Профиль формата : Main@L4.0
Параметр CABAC формата : Нет
Параметр ReFrames формата : 4 кадра
Идентификатор кодека : V_MPEG4/ISO/AVC
Продолжительность : 2 ч. 23 м.
Битрейт : 8004 Кбит/сек
Ширина : 1920 пикселей
Высота : 1080 пикселей
Соотношение сторон : 16:9
Частота кадров : 23,976 кадра/сек
Цветовое пространство : YUV
Субдискретизация насыщенности : 4:2:0
Битовая глубина : 8 бит
Тип развёртки : Прогрессивная
Бит/(Пиксели*Кадры) : 0.161
Размер потока : 7,77 Гбайт (89%)
Заголовок : Man of Steel (2013) BDRip 1080p (Crop).mkv
Библиотека кодирования : x264 core 130 r2273 b3065e6
Настройки программы : cabac=0 / ref=4 / deblock=0:-1:-1 / analyse=0:0 / me=dia / subme=2 / psy=1 / psy_rd=1.00:0.15 / mixed_ref=0 / me_range=16 / chroma_me=1 / trellis=0 / 8x8dct=0 / cqm=0 / deadzone=21,11 / fast_pskip=1 / chroma_qp_offset=0 / threads=3 / lookahead_threads=1 / sliced_threads=0 / nr=0 / decimate=1 / interlaced=0 / bluray_compat=0 / constrained_intra=0 / bframes=4 / b_pyramid=2 / b_adapt=0 / b_bias=0 / direct=1 / weightb=0 / open_gop=0 / weightp=0 / keyint=240 / keyint_min=24 / scenecut=0 / intra_refresh=0 / rc=abr / mbtree=0 / bitrate=8004 / ratetol=1.0 / qcomp=0.60 / qpmin=0 / qpmax=69 / qpstep=4 / ip_ratio=1.40 / pb_ratio=1.30 / aq=0
Язык : English
Основные цвета : BT.709-5, BT.1361, IEC 61966-2-4, SMPTE RP177
Характеристики трансфера : BT.709-5, BT.1361
Коэффициенты матрицы : BT.709-5, BT.1361, IEC 61966-2-4 709, SMPTE RP177

Аудио #1
Идентификатор : 2
Формат : AC-3
Формат/Информация : Audio Coding 3
Расширение режима : CM (complete main)
Идентификатор кодека : A_AC3
Продолжительность : 2 ч. 23 м.
Вид битрейта : Постоянный
Битрейт : 448 Кбит/сек
Каналы : 6 каналов
Расположение каналов : Front: L C R, Side: L R, LFE
Частота : 48,0 КГц
Битовая глубина : 16 бит
Метод сжатия : С потерями
Размер потока : 458 Мбайт (5%)
Заголовок : Dub
Язык : Russian

Аудио #2
Идентификатор : 3
Формат : AC-3
Формат/Информация : Audio Coding 3
Расширение режима : CM (complete main)
Идентификатор кодека : A_AC3
Продолжительность : 2 ч. 23 м.
Вид битрейта : Постоянный
Битрейт : 384 Кбит/сек
Каналы : 6 каналов
Расположение каналов : Front: L C R, Side: L R, LFE
Частота : 48,0 КГц
Битовая глубина : 16 бит
Метод сжатия : С потерями
Размер потока : 393 Мбайт (4%)
Заголовок : Original
Язык : English

Меню
00:00:00.000 : en:Chapter 1
00:11:17.009 : en:Chapter 2
00:20:01.450 : en:Chapter 3
00:30:09.474 : en:Chapter 4
00:48:57.726 : en:Chapter 6
00:59:03.456 : en:Chapter 7
01:08:57.925 : en:Chapter 8
01:17:35.150 : en:Chapter 9
01:28:36.185 : en:Chapter 10
01:40:47.791 : en:Chapter 11
01:50:55.940 : en:Chapter 12
02:00:53.621 : en:Chapter 13
02:10:13.555 : en:Chapter 14
02:12:49.962 : en:Chapter 15

pb.wtf



Скачать Человек из стали через торрент http://pic.kartinco.top/images/4/fdf7c.jpg Скачать фильм Человек из стали через торрент бесплантно в хорошем качестве Описание: Кларк Кент / Кэл-Эл — молодой человек, который чувствует себя чужаком из-за своей невероятной силы. Много лет назад он был ... 9.5 10 32
Info! Золотая раздача, скачанное не засчитывается.
Торрент: Зарегистрирован [2013-10-20 10:54] · скачан: 1 073 раз
Статус: √ проверено
Размер: 8.78 GB
Как cкачать? Как скачать Человек из стали через торрент | qTorrent

% Раздел Тема Автор DL S | L
Фильмы [HD 720p, 1080p] (Хороший звук DUB, MVO) [ 13.22 GB ] Человек из стали / Man of Steel [2013 BDRip-HEVC 1080p ] DUB [] bober100 Скачать
2 | 0
Ultra HD (UHD: 2K, 4K, 8K) — видео сверхвысокой чёткости [ 82.77 GB ] Человек из стали / Man of Steel [2013 UHD BDRemux 2160p] DUB + 2xAVO sheker187 Скачать
2 | 0
Фильмы (Blu-ray, BD-Remux, HDDVD) [ 42.59 GB ] Человек из стали / Man of Steel [2013 BD Remux 1080p] 2xAVO+DUB [] bober100 Скачать
1 | 0
Ultra HD (UHD: 2K, 4K, 8K) — видео сверхвысокой чёткости [ 73.77 GB ] Человек из стали / Man of Steel [2013 UHD Blu-ray 2160p] - [] sheker187 Скачать
1 | 0
Фильмы [HD 720p, 1080p] (Хороший звук DUB, MVO) [ 10.64 GB ] Человек из стали / Man of Steel [2013 BDRip 720p] Dub || NarutoSasuke Скачать
1 | 1
Порно фильмы с сюжетом [ 896 MB ] Человек Из Стали: Порно пародия / Man of Steel XXX: An Axel Braun Parody [2013 Big Budget Fantasy Feature Parody DVDRip Оригинал] SKAV Скачать
1 | 0
3D Видео (48-60 fps) [ 17.26 GB ] Человек из стали / Man of Steel [2013 3D BDRip 1080p / 60 FPSГоризонтальная анаморфная стереопара ] Tiberiumsun69 Скачать
1 | 0

28-11-2019 20:33  

Отключить всю рекламу на сайте

22-10-2013 05:48 Человек из стали Скачать торрент  

За полный экран конечно спасибо, сам его ищу...но если исходник тот, с которого 1920х800, значит здесь:
(1920*1080)/800 = 2592
То есть обрезанные 2592-1920=672/2= по 336 пикселей с обеих сторон, многовато...А без "обрезания" этот фильм существует вообще в 1920х1080?pb.wtf



24-10-2013 18:37 Человек из стали Скачать торрент  

Обрезано по 242p, а (16:9) без полос не видел.pb.wtf



11-03-2016 09:54 Человек из стали Скачать торрент  

Зачем врать и писать, что разрешение картинки 1920х1080?
1436х800, вот настоящее её разрешение.pb.wtf



    Дорогой пользователь! Огромная просьба, поблагодарите релизера, оцените раздачу и оставьте свои комментарий, если Вы скачали Человек из стали через торрент бесплатно! Внесите свою лепту в развитие PiratBit!
    Комментировать посты могут только пользователи прошедшие не сложную регистрацию
    Показать сообщения:    

    Человек из стали через торрент
    Скачать бесплатно Человек из стали
    Человек из стали скачать торрент
    Человек из стали смотреть онлайн
    Cкачать фильм Человек из стали бесплатно
    Человек из стали скачать торрент в хорошем качестве
    Человек из стали смотреть онлайн бесплатно в хорошем качестве


    Вы не можете начинать темы
    Вы не можете отвечать на сообщения
    Вы не можете редактировать свои сообщения
    Вы не можете удалять свои сообщения
    Вы не можете голосовать в опросах
    Вы не можете прикреплять файлы к сообщениям
    Вы можете скачивать файлы