2 сезон

iTunes

MVO

1

2 сезон

iTunes

iTunes

1 сезон

RePack

30

Ultimate

ВАЖНО

ИГРА 18+

pack

RePack

MK11
pack

Легкие деньги

RePack

jed

RePack

fifa19

RePack

RDR2

RePack

NEED FOR SPEED™ PAYBACK

4 сезон

9 сезон

Бесстыжие 9 сезон

Все сериалы

все сериалы на PB.wtf

RePack

FAR CRY 5

Anonymous, добрый вечер, мы не успеваем собрать деньги на оплату серверов за декабрь и январь, помогите нам пожалуйста в это трудное время. В качестве благодарности мы отключим Вам всю рекламу на сайте (укажите свой ник в строку Ваше имя)!

×
  
Magnet ссылка

Человек из стали / Man of Steel (Зак Снайдер / Zack Snyder) [2013, фантастика, фэнтези, боевик, BDRip 1080p, DUB, Лицензия] Half OverUnder / Вертикальная анаморфная стереопара (Crop Anamorph OverUnder) pb.wtf

Человек из стали через торрент pb.wtf

Размер: 21.52 GB | Добавлен: 7 лет 2 мес. назад | Торрент скачан:837 раз
Скачать  

20-10-2013 19:50 Человек из стали Скачать торрент  

Человек из стали / Man of Steel

Год выпуска : 2013
Страна: США, Канада, Великобритания
Жанр: Фантастика, фэнтези, боевик, приключения

Продолжительность: 02:23:03
Перевод: Дубляж [Лицензия]

Субтитры: Нет
Режиссер: Зак Снайдер / Zack Snyder
В ролях: Генри Кавилл (Clark Kent /Kal-El), Эми Адамс (Lois Lane), Майкл Шеннон (General Zod), Рассел Кроу (Jor-El), Дайан Лэйн (Martha Kent), Кевин Костнер (Jonathan Kent), Антье Трауэ (Faora-Ul), Лоренс Фишбёрн (Perry White), Кристофер Мелони (Colonel Nathan Hardy), Гарри Дж. Ленникс (General Swanwick), Ричард Шифф (Dr. Emil Hamilton), Айелет Зурер (Lara Lor-Van)
Описание: Кларк Кент/Кал-Эл - молодой человек, который чувствует себя чужаком из-за своей невероятной силы. Много лет назад он был отправлен на Землю с развитой планеты Криптон, и теперь задается вопросом: зачем?
Воспитанный приемными родителями Мартой и Джонатаном Кентами, Кларк знает: обладать сверхспособностями - значит принимать сложные решения. Но когда человечество более всего нуждается в стабильности, оно подвергается нападению. Сможет ли герой восстановить мир, или воспользуется своей силой для того, чтобы окончательно его разрушить?
Рейтинг

imdb.com: 7.60 (234 726)
MPAA: PG-13 - Детям до 13 лет просмотр не желателен
Формат 3D: Half OverUnder / Вертикальная анаморфная стереопара (Crop Anamorph OverUnder- Без чёрных полос)

Качество: BDRip 1080p
Формат: MKV
Видео кодек: AVC
Аудио кодек: AC3
Видео: AVC, 1920x1080 (16:9), 19831 kbps, 23,976 fps
Аудио №1: русский / AC3 / 5.1 / 48 kHz / 640 kbps / 16 bit
Аудио №2: английский / AC3 / 5.1 / 48 kHz / 640 kbps / 16 bit
Справа и слева у видеоряда обрезано по 248р, что дает возможность просмотра на полный экран (без черных полос) на телевизорах с соотношением сторон 16:9 без изменения пропорций. На мой взгляд плюсы данных рипов- это более глубокое восприятие 3D-эффектов (конечно там где они есть) К минусам отнесу- вынужденное обрезание кадра по бокам. Так-что господа- выбор за вами! Всем приятного просмотра!

General
Unique ID : 234314234262071992887328819726113573330 (0xB04747AF236A55EBB4933643B8A009D2)
Complete name : I:Man of Steel_1080p_Rip by Dag13.mkv
Format : Matroska
Format version : Version 2
File size : 21.5 GiB
Duration : 2h 23mn
Overall bit rate : 21.5 Mbps
Encoded date : UTC 2013-10-20 06:16:37
Writing application : mkvmerge v3.4.0 ('Rapunzel') сборка от May 15 2010 09:38:20
Writing library : libebml v0.8.0 + libmatroska v0.9.0

Video
ID : 1
Format : AVC
Format/Info : Advanced Video Codec
Format profile : High@L4.0
Format settings, CABAC : Yes
Format settings, ReFrames : 4 frames
Codec ID : V_MPEG4/ISO/AVC
Duration : 2h 23mn
Bit rate : 19.8 Mbps
Width : 1 920 pixels
Height : 1 080 pixels
Display aspect ratio : 16:9
Frame rate : 23.976 fps
Color space : YUV
Chroma subsampling : 4:2:0
Bit depth : 8 bits
Scan type : Progressive
Bits/(Pixel*Frame) : 0.399
Stream size : 19.8 GiB (92%)
Title : Rip by Dag13
Writing library : x264 core 116 r2074 2641b9e
Encoding settings : cabac=1 / ref=4 / deblock=1:-3:-3 / analyse=0x3:0x113 / me=umh / subme=9 / psy=1 / psy_rd=1.00:0.00 / mixed_ref=1 / me_range=16 / chroma_me=1 / trellis=2 / 8x8dct=1 / cqm=0 / deadzone=21,11 / fast_pskip=1 / chroma_qp_offset=-2 / threads=9 / sliced_threads=0 / nr=0 / decimate=1 / interlaced=0 / bluray_compat=0 / constrained_intra=0 / bframes=6 / b_pyramid=2 / b_adapt=2 / b_bias=0 / direct=3 / weightb=1 / open_gop=0 / weightp=2 / keyint=250 / keyint_min=23 / scenecut=40 / intra_refresh=0 / rc_lookahead=60 / rc=crf / mbtree=1 / crf=18.0 / qcomp=0.60 / qpmin=1 / qpmax=69 / qpstep=4 / ip_ratio=1.40 / aq=1:1.00
Language : English
Default : No
Forced : No

Audio #1
ID : 2
Format : AC-3
Format/Info : Audio Coding 3
Mode extension : CM (complete main)
Codec ID : A_AC3
Duration : 2h 23mn
Bit rate mode : Constant
Bit rate : 640 Kbps
Channel(s) : 6 channels
Channel positions : Front: L C R, Side: L R, LFE
Sampling rate : 48.0 KHz
Bit depth : 16 bits
Compression mode : Lossy
Stream size : 655 MiB (3%)
Language : Russian
Default : Yes
Forced : No

Audio #2
ID : 3
Format : AC-3
Format/Info : Audio Coding 3
Mode extension : CM (complete main)
Codec ID : A_AC3
Duration : 2h 23mn
Bit rate mode : Constant
Bit rate : 640 Kbps
Channel(s) : 6 channels
Channel positions : Front: L C R, Side: L R, LFE
Sampling rate : 48.0 KHz
Bit depth : 16 bits
Compression mode : Lossy
Stream size : 655 MiB (3%)
Language : English
Default : No
Forced : No

pb.wtf



Скачать Человек из стали через торрент http://pic.kartinco.top/images/4/ozlt3.jpg Скачать фильм Человек из стали через торрент бесплантно в хорошем качестве Описание: Кларк Кент/Кал-Эл - молодой человек, который чувствует себя чужаком из-за своей невероятной силы. Много лет назад он был ... 9.8 10 35
Info! Золотая раздача, скачанное не засчитывается.
Торрент: Зарегистрирован [2013-10-20 19:50] · скачан: 837 раз
Статус: √ проверено
Размер: 21.52 GB
Как cкачать? Как скачать Человек из стали через торрент | UTorrent

% Раздел Тема Автор DL S | L
Фильмы (HD 720p, 1080p) (48-60 fps) [ 5.43 GB ] Человек из стали / Man of Steel [2013 BDRip 720p / 60 FPS ] от R.G. HD-Films slaventi-69 Скачать
8 | 0
Фильмы [HD 720p, 1080p] (Хороший звук DUB, MVO) [ 13.22 GB ] Человек из стали / Man of Steel [2013 BDRip-HEVC 1080p ] DUB [] bober100 Скачать
1 | 0
Ultra HD (UHD: 2K, 4K, 8K) — видео сверхвысокой чёткости [ 82.77 GB ] Человек из стали / Man of Steel [2013 UHD BDRemux 2160p] DUB + 2xAVO sheker187 Скачать
1 | 0
Фильмы (Blu-ray, BD-Remux, HDDVD) [ 42.59 GB ] Человек из стали / Man of Steel [2013 BD Remux 1080p] 2xAVO+DUB [] bober100 Скачать
1 | 0
Ultra HD (UHD: 2K, 4K, 8K) — видео сверхвысокой чёткости [ 73.77 GB ] Человек из стали / Man of Steel [2013 UHD Blu-ray 2160p] - [] sheker187 Скачать
1 | 0
Фильмы [HD 720p, 1080p] (Хороший звук DUB, MVO) [ 8.78 GB ] Человек из стали / Man of Steel [2013 BDRip 1080p + Оригинал] slaventi-69 Скачать
1 | 0
Фильмы [HD 720p, 1080p] (Хороший звук DUB, MVO) [ 10.64 GB ] Человек из стали / Man of Steel [2013 BDRip 720p] Dub || NarutoSasuke Скачать
1 | 0

28-11-2019 20:33  

Отключить всю рекламу на сайте

21-10-2013 13:06 Человек из стали Скачать торрент  

Молодец, еле дождался в 3D без черных полос. Ещё раз молодца yespb.wtf



21-10-2013 15:58 Человек из стали Скачать торрент  

большое спасибоpb.wtf



    Дорогой пользователь! Огромная просьба, поблагодарите релизера, оцените раздачу и оставьте свои комментарий, если Вы скачали Человек из стали через торрент бесплатно! Внесите свою лепту в развитие PiratBit!
    Комментировать посты могут только пользователи прошедшие не сложную регистрацию
    Показать сообщения:    

    Человек из стали через торрент
    Скачать бесплатно Человек из стали
    Человек из стали скачать торрент
    Человек из стали смотреть онлайн
    Cкачать фильм Человек из стали бесплатно
    Человек из стали скачать торрент в хорошем качестве
    Человек из стали смотреть онлайн бесплатно в хорошем качестве


    Вы не можете начинать темы
    Вы не можете отвечать на сообщения
    Вы не можете редактировать свои сообщения
    Вы не можете удалять свои сообщения
    Вы не можете голосовать в опросах
    Вы не можете прикреплять файлы к сообщениям
    Вы можете скачивать файлы