Ссылка на приватное зеркало нашего сайта всего за 1$. Внимание количество ограничено!!!

2 сезон

iTunes

1 сезон

1

2 сезон

2 сезон

iTunes

1 сезон

RePack

30

Ultimate

ВАЖНО

ИГРА 18+

pack

RePack

MK11
pack

Забери бонус

RePack

jed

!!Акция!!

Alien_Rage

RePack

fifa19

RePack

Assassins Creed: Odyssey

RePack

NEED FOR SPEED™ PAYBACK

4 сезон

9 сезон

Бесстыжие 9 сезон

Все сериалы

все сериалы на PB.wtf

RePack

FAR CRY 5
  

Штурм Белого дома / White House Down (Роланд Эммерих / Roland Emmerich) [2013, боевик, триллер, HDRip, DUB, Лицензия] pb.wtf

Штурм Белого дома через торрент pb.wtf

Размер: 2.05 GB | Добавлен: 7 лет 1 мес. назад | Торрент скачан:2209 раз
Скачать  

10-10-2013 13:02 Штурм Белого дома Скачать торрент  

Штурм Белого дома / White House Down

Год выпуска : 2013
Страна: США
Жанр: Боевик, триллер

Продолжительность: 02:11:32
Перевод: Профессиональный (полное дублирование) [Лицензия]

Субтитры: Нет
Режиссер: Роланд Эммерих / Roland Emmerich
В ролях: Ченнинг Татум (Cale), Джейми Фокс (President Sawyer), Мэгги Джилленхол (Finnerty), Джейсон Кларк (Stenz), Ричард Дженкинс (Raphelson), Джеймс Вудс (Walker), Джои Кинг (Emily), Николас Райт (Donnie the Guide), Джимми Симпсон (Tyler), Майкл Мерфи (Viсе President Hammond), Рашель Лефевр (Melanie), Лэнс Реддик (General Caulfield)
Описание: Cотрудник госбезопасности приходит вместе с дочерью в Белый дом на собеседование на должность в структуру охраны президента. И именно в этот день Белый дом атакуют некие неопознанные вооружённые силы. Офицер проявляет чудеса находчивости и отваги, пытаясь спасти жизнь своему ребёнку, себе и президенту США.
Рейтинг

imdb.com: 6.40 (30 833)
MPAA: PG-13 - Детям до 13 лет просмотр не желателен
Качество: HDRip
Формат: AVI
Видео кодек: XviD
Аудио кодек: AC3
Видео: XviD, 720x304 (2.35:1), 1773 kbps, 23,976 fps
Аудио: AC3 / 5.1 / 48 kHz / 448 kbps / 16 bit

General
Complete name : I:Shturm.belogo.doma.2013.D.HDRip.2100MB.avi
Format : AVI
Format/Info : Audio Video Interleave
Format profile : OpenDML
File size : 2.05 GiB
Duration : 2h 11mn
Overall bit rate : 2 234 Kbps
Writing application : VirtualDubMod 1.5.10.2 (build 2540/release)
Writing library : VirtualDubMod build 2540/release

Video
ID : 0
Format : MPEG-4 Visual
Format profile : Advanced Simple@L5
Format settings, BVOP : 2
Format settings, QPel : No
Format settings, GMC : No warppoints
Format settings, Matrix : Custom
Codec ID : XVID
Codec ID/Hint : XviD
Duration : 2h 11mn
Bit rate : 1 774 Kbps
Width : 720 pixels
Height : 304 pixels
Display aspect ratio : 2.35:1
Frame rate : 23.976 fps
Color space : YUV
Chroma subsampling : 4:2:0
Bit depth : 8 bits
Scan type : Progressive
Compression mode : Lossy
Bits/(Pixel*Frame) : 0.338
Stream size : 1.63 GiB (79%)
Writing library : XviD 1.2.1 (UTC 2008-12-04)

Audio
ID : 1
Format : AC-3
Format/Info : Audio Coding 3
Mode extension : CM (complete main)
Codec ID : 2000
Duration : 2h 11mn
Bit rate mode : Constant
Bit rate : 448 Kbps
Channel(s) : 6 channels
Channel positions : Front: L C R, Side: L R, LFE
Sampling rate : 48.0 KHz
Bit depth : 16 bits
Compression mode : Lossy
Stream size : 422 MiB (20%)
Alignment : Split accross interleaves
Interleave, duration : 42 ms (1.00 video frame)
Interleave, preload duration : 500 ms
pb.wtf



Скачать Штурм Белого дома через торрент http://pic.kartinco.top/images/4/zbye5.jpg Скачать фильм Штурм Белого дома через торрент бесплантно в хорошем качестве Описание: Cотрудник госбезопасности приходит вместе с дочерью в Белый дом на собеседование на должность в структуру охраны президента. И ... 9.7 10 54
Info! Золотая раздача, скачанное не засчитывается.
Торрент: Зарегистрирован [2013-10-10 13:02] · скачан: 2 209 раз
Статус: √ проверено
Размер: 2.05 GB
Как cкачать? Как скачать Штурм Белого дома через торрент | qTorrent

% Раздел Тема Автор DL S | L
Фильмы (BDRip, HDrip-AVC) (48-60 fps) [ 3.95 GB ] Штурм Белого дома / White House Down [2013 BDRip-AVC 60fps Dub] от R.G. HD-Films Tiberiumsun69 Скачать
3 | 0
Фильмы 2013 [DVDrip, WEB-DLRip, HDrip] [ 749 MB ] Штурм Белого дома / White House Down [2013 BDRip-AVC] Dub sokol_ok Скачать
2 | 0
Фильмы 2013 [DVDrip, WEB-DLRip, HDrip] [ 1.46 GB ] Штурм Белого дома / White House Down [ 2013 BDRip ] Ворон Скачать
1 | 0
Фильмы [HD 720p, 1080p] (Хороший звук DUB, MVO) [ 7.97 GB ] Штурм Белого дома / White House Down [2013 BDRip 1080p ] slaventi-69 Скачать
1 | 0
Фильмы 2013 [DVDrip, WEB-DLRip, HDrip] [ 2.91 GB ] Штурм Белого дома / White House Down [2013 BDRip-AVC ] potroks Скачать
1 | 0
Фильмы [HD 720p, 1080p] (Хороший звук DUB, MVO) [ 13.4 GB ] Штурм Белого дома / White House Down [2013 BDRip 1080p DUB ] лисяра Скачать
1 | 0
Фильмы [HD 720p, 1080p] (Хороший звук DUB, MVO) [ 7.43 GB ] Штурм Белого дома / White House Down [ 2013 BDRip 720p ] МАКС1 Скачать
1 | 0

28-11-2019 20:33  

Отключить всю рекламу на сайте

10-10-2013 13:11 Штурм Белого дома Скачать торрент  

спс порадовал.
а то смотреть вообще нечего было. pb.wtf



10-10-2013 13:15 Штурм Белого дома Скачать торрент  

Присоединяюсь к раздаче :ad:pb.wtf



10-10-2013 13:17 Штурм Белого дома Скачать торрент  

спасибо за качество!!!...ещё б скорости добавить..а то скачка выше 600 не поднимается pb.wtf



10-10-2013 13:29 Штурм Белого дома Скачать торрент  

Оо спасибо-давно ждалpb.wtf



10-10-2013 16:08 Штурм Белого дома Скачать торрент  

Фильм с большой буквы, очень понравился!!!pb.wtf



10-10-2013 16:45 Штурм Белого дома Скачать торрент  

большое,человеческое,рыжий))pb.wtf



13-10-2013 12:46 Штурм Белого дома Скачать торрент  

хороший фильм, понравилсяpb.wtf



    Дорогой пользователь! Огромная просьба, поблагодарите релизера, оцените раздачу и оставьте свои комментарий, если Вы скачали Штурм Белого дома через торрент бесплатно! Внесите свою лепту в развитие PiratBit!
    Комментировать посты могут только пользователи прошедшие не сложную регистрацию
    Показать сообщения:    

    Штурм Белого дома через торрент
    Скачать бесплатно Штурм Белого дома
    Штурм Белого дома скачать торрент
    Штурм Белого дома смотреть онлайн
    Cкачать фильм Штурм Белого дома бесплатно
    Штурм Белого дома скачать торрент в хорошем качестве
    Штурм Белого дома смотреть онлайн бесплатно в хорошем качестве


    Вы не можете начинать темы
    Вы не можете отвечать на сообщения
    Вы не можете редактировать свои сообщения
    Вы не можете удалять свои сообщения
    Вы не можете голосовать в опросах
    Вы не можете прикреплять файлы к сообщениям
    Вы можете скачивать файлы