новый адрес
Ссылка на приватное зеркало всего за 1$. Внимание количество ограничено!!!

iTunes

1+1

iTunes

мы

iTunes

1

iTunes

Чернобыль

iTunes

Ральф против интернета

Лицензия

ПШазам

Лицензия

Оно 2

Лицензия

30
pack

Вам бонус

ВАЖНО

!!Акция!!

Alien_RageХит недели

RePack

Resident Evil 21

ИГРА 18+

pack

RePack

jed

!!Акция!!

Alien_Rage

RePack

fifa19

RePack

Assassins Creed: Odyssey

RePack

NEED FOR SPEED™ PAYBACK

3 сезон

9 сезон

Бесстыжие 9 сезон

Все сериалы

все сериалы на PB.wtf

RePack

FAR CRY 5
Ребята, катастрофически не хватает 1900р. для оплаты серверов за Октябрь (всвязи с блокировками трафик упал в 3 раза), 1-2р., выручайте.
  

Друг (Леонид Квинихидзе) [1987, драма, фантасмагория, притча, DVDRip] pb.wtf

Друг через торрент pb.wtf

Размер: 1.37 GB | Добавлен: 5 лет 9 мес. назад | Торрент скачан:59 раз
Скачать  

30-01-2014 19:31 Друг Скачать торрент  

Название фильма: Друг
Год выпуска: 1987
Жанр: Трагикомедия, мелодрама, драма
Продолжительность: 01:18:21
Режиссер: Леонид Квинихидзе
Сценарий: Эдуард Акопов
В ролях: Сергей Шакуров, Василий Ливанов (голос Друга), Елена Соловей, Игорь Ясулович, Виктор Уральский, Анатолий Ромашин, Галина Польских, Татьяна Кочемасова, Наташа Коренченко, ньюфаундленд Ютгай
Описание:
Спасительна ирония этой очень необычной ленты, где безымянная собака, которая случайно досталась одному алкоголику и была названа им просто Другом, не только оказалась говорящей, но и попыталась отвратить пока ещё не окончательно пропащего человека от пагубного пристрастия к «зелёному змию». Разговаривая весьма характерным голосом актёра Василия Ливанова, большой чёрный пёс породы ньюфаундленд (что само по себе нетрадиционно для отечественных картин о собаках, поскольку нередко предпочтение отдаётся доблестным овчаркам или же симпатичным дворнягам) воспитывает и наставляет своего человечьего спутника жизни на путь истинный, неизбежно становясь авторским резонёром.
Награды: приз за лучшую мужскую роль Сергею Шакурову на ВКФ в Баку (1988)
Ограничения на просмотр: для любой зрительской аудитории


Качество: DVDRip
Формат: AVI
Видео кодек: DivX
Аудио кодек: AC3
Видео: 704x528 (1.33:1), 25 fps, XviD 1.2.1, 2295 kbps avg, 0.25 bit/pixel
Аудио: AC3 Dolby Digital, 2/0 (L,R) ch, 192.00 kbps avg, 48 kHz
Общее
Полное имя : H:DrugDrug.avi
Формат : AVI
Формат/Информация : Audio Video Interleave
Размер файла : 1,37 Гбайт
Продолжительность : 1 ч. 18 м.
Общий поток : 2497 Кбит/сек
Программа кодирования : VirtualDubMod 1.5.10.3 | www.virtualdub-fr.org || (build 2550/release)
Библиотека кодирования : VirtualDubMod build 2550/release

Видео
Идентификатор : 0
Формат : MPEG-4 Visual
Профиль формата : Advanced Simple@L5
Параметр BVOP формата : 2
Параметр QPel формата : Нет
Параметр GMC формата : Без точки перехода
Параметр матрицы формата : Default (MPEG)
Режим смешивания : Сжатый битовый поток
Идентификатор кодека : DIVX
Идентификатор кодека/Информация : Project Mayo
Идентификатор кодека/Подсказка : DivX 4
Продолжительность : 1 ч. 18 м.
Битрейт : 2295 Кбит/сек
Ширина : 704 пикселя
Высота : 528 пикселей
Соотношение сторон : 4:3
Частота кадров : 25,000 кадров/сек
Цветовое пространство : YUV
Субдискретизация насыщенности : 4:2:0
Битовая глубина : 8 бит
Тип развёртки : Прогрессивная
Метод сжатия : С потерями
Бит/(Пиксели*Кадры) : 0.247
Размер потока : 1,26 Гбайт (92%)
Библиотека кодирования : XviD 1.2.1 (UTC 2008-12-04)

Аудио
Идентификатор : 1
Формат : AC-3
Формат/Информация : Audio Coding 3
Расширение режима : CM (complete main)
Параметр Endianness формата : Big
Идентификатор кодека : 2000
Продолжительность : 1 ч. 18 м.
Вид битрейта : Постоянный
Битрейт : 192 Кбит/сек
Каналы : 2 канала
Расположение каналов : Front: L R
Частота : 48,0 КГц
Битовая глубина : 16 бит
Метод сжатия : С потерями
Размер потока : 108 Мбайт (8%)
Выравнивание : Разделение по промежуткам
Продолжительность промежутка : 40 мс. (1,00 видеокадр)
Время предзагрузки промежутка : 500 мс.

скриншот   скриншот   скриншот   скриншот   скриншот   скриншот   скриншот   скриншот  
pb.wtf



Скачать Друг через торрент http://pic.kartinco.top/images/6/ukn44.jpg Скачать фильм Друг через торрент бесплантно в хорошем качестве Описание: Спасительна ирония этой очень необычной ленты, где безымянная собака, которая случайно досталась одному алкоголику и была ... 10 10 7
Info! Золотая раздача, скачанное не засчитывается.
Торрент: Зарегистрирован [2014-01-30 19:31] · скачан: 59 раз
Статус: √ проверено
Размер: 1.37 GB
Как cкачать? Как скачать Друг через торрент | qTorrent

% Раздел Тема Автор DL S | L
Фильмы 2009 [ 1.36 GB ] Другой мир: Восстание ликанов / Underworld: Rise of the Lycans [2009 DVDRip] paul08 Скачать
1 | 0
Фильмы до 2000 г. [ 1.37 GB ] Другие 48 часов / Another 48 Hrs [1990 ... DVDRip] chaga2009 Скачать
1 | 0
Зарубежные сериалы [ 41.14 GB ] Щит / The Shield [2002-2008 DVDRip] Romeo0502 Скачать
1 | 0
Сборники (HD Video) [ 24.47 GB ] [Трилогия] Другой мир / Underworld [2003 2006 2009 HDTVRip BDRip] [1080p] DEVI Скачать
1 | 0
Разное [ 67 MB ] !!!Внимание.Две гермафродитки имеют одновременно друг друга!Невероятно... [2000 oralcrazy sex! CamRip] Juzeppe Скачать
1 | 0
Русские порно ролики [ 342 MB ] Поделилась членом с подругой [2011 DVDRip] romansito Скачать
1 | 0
Веб-дизайн и программирование [ 1 MB ] Шпаргалки по php mysql html css и многое другое.. [2006] Инсайдер Скачать
1 | 0


>> Переходим по ссылке <<
Автоматически подгузится скрипт который настроит ваш браузер на выигрыш!!
После настройки браузера вероятность выигрыша увеличется в 4.1-4,6 раза.
В течение 6 секунд вам откроется настроенный интерфейс казино, с повышенной вероятностью выигрыша.






Отзывы и комментарии о схеме читаем и пишем здесь: ---> Отзывы и комментарии о схеме

Новые благодарочки в телеграм довольных пользователей:
скриншот   скриншот   скриншот   скриншот   скриншот

30-01-2014 19:36 Друг Скачать торрент  

Raven ,спасибо за молниеносный прием релиз и ""Золото"
/ pb.wtf



30-01-2014 19:37 Друг Скачать торрент  

Лучшее снималось в период поднятие кинематографа.Сейчас все повторяется приквелы.сиквелы и т.д..Оригинальных картин мало но они есть но к сожалению таковых мало.pb.wtf



30-01-2014 20:17 Друг Скачать торрент  

igorutka
Удивляюсь, что не видел раньше и не знал об этом фильме ничего!
Спасибо, не перестаёшь радовать! yes pb.wtf



30-01-2014 20:26 Друг Скачать торрент  

marsmoon
В антиалкогольную кампанию он "вписался " как штатный ,но в популярности его было много больше обычной киноподелки на заказанную правительством тему. Шакуров и Соловей это умеют - так взять за душу...И голос Ливанова,конечно .
Спасибо за отзыв pb.wtf



09-10-2014 16:35 Друг Скачать торрент  

В 1998 смотрел этот фильм в Анапе, если не ошибаюсь там Розенбаум поёт? Спасибо за фильм.pb.wtf



    Дорогой пользователь! Огромная просьба, поблагодарите релизера, оцените раздачу и оставьте свои комментарий, если Вы скачали Друг через торрент бесплатно! Внесите свою лепту в развитие PiratBit!
    Комментировать посты могут только пользователи прошедшие не сложную регистрацию
    Показать сообщения:    

    Друг через торрент
    Скачать бесплатно Друг
    Друг скачать торрент
    Друг смотреть онлайн
    Cкачать фильм Друг бесплатно
    Друг скачать торрент в хорошем качестве
    Друг смотреть онлайн бесплатно в хорошем качестве


    Вы не можете начинать темы
    Вы не можете отвечать на сообщения
    Вы не можете редактировать свои сообщения
    Вы не можете удалять свои сообщения
    Вы не можете голосовать в опросах
    Вы не можете прикреплять файлы к сообщениям
    Вы можете скачивать файлы