2 сезон

iTunes

MVO

1

2 сезон

iTunes

iTunes

1 сезон

RePack

30

Новинка

ВАЖНО

ИГРА 18+

pack

RePack

MK11
pack

Легкие деньги

RePack

jed

RePack

fifa19

RePack

RDR2

RePack

NEED FOR SPEED™ PAYBACK

4 сезон

9 сезон

Бесстыжие 9 сезон

Все сериалы

все сериалы на PB.wtf

RePack

FAR CRY 5

Anonymous, добрый вечер, мы не успеваем собрать деньги на оплату серверов за декабрь и январь, помогите нам пожалуйста в это трудное время. В качестве благодарности мы отключим Вам всю рекламу на сайте (укажите свой ник в строку Ваше имя)!

×
  
Magnet ссылка

Почти замужем / Nearlyweds (Марк Гриффитс) [2013 г., Комедия, DVDRip, Профессиональный многоголосый, Лицензия] pb.wtf

Почти замужем через торрент pb.wtf

Размер: 1.37 GB | Добавлен: 6 лет 11 мес. назад | Торрент скачан:895 раз
Скачать  

30-01-2014 20:23 Почти замужем Скачать торрент  

Почти замужем / Nearlyweds

Год выпуска: 2013
Страна: США
Выпущено: Pitchblack Pictures, Wonderfly Films
Жанр: Комедия
Продолжительность: 01:30:00
Перевод: Профессиональный многоголосый, Лицензия

Режиссер: Марк Гриффитс
Продюссер: Джэми Горинг, Кэт Грин, Уильям Р. Гринблатт
Сценарий: Ори Уоллингтон, Бет Кендрик
Премьера в мире: 12 января 2013

IMDB 5.80 (272)


В ролях: Даниэль Панабэйкер, Джессика Паркер Кеннеди, Бриттни Ирвин, Райан Кеннеди, Трэвис Милн, Стив Бачич, Кристи Лэйн, Наоми Джудд, Чарльз Сигел, Джаред Кисо

Описание: Когда три подруги — Эрин, Кэйси и Стелла — узнают, что из-за бюрократической ошибки брак каждой из них теперь считается недействительным, они понимают — пришла пора оценить свою семейную жизнь и своих «почти-мужей» заново. И действительно, им есть о чем задуматься: Эрин бьется со свекровью за внимание мужа; Кэйси пытается выяснить, серьезно ли относится ее супруг к жизни в браке; а Стелла должна определиться, что для нее важнее — карьера или роль хранительницы домашнего очага. Теперь подругам предстоит сделать нелегкий выбор — снова пойти под венец или...

Качество: DVDRip
Формат: AVI
Видео кодек: XviD
Аудио кодек: AC3
Видео: XviD, 1987 Кбит/с, 720x400, 25.000 fps, (Bits/Pixel): 0.276
Аудио: AC3, 6 ch, 256 Кбит/с, 48.0 KHz
General
Complete name : /home/sb753/files/Pochti.zamujem.2013.P.DVDRip.1400MB.avi
Format : AVI
Format/Info : Audio Video Interleave
File size : 1.37 GiB
Duration : 1h 26mn
Overall bit rate : 2 252 Kbps
Writing application : VirtualDubMod 1.5.10.3 | www.virtualdub-fr.org || (build 2550/release)
Writing library : VirtualDubMod build 2550/release

Video
ID : 0
Format : MPEG-4 Visual
Format profile : Advanced Simple@L5
Format settings, BVOP : 2
Format settings, QPel : No
Format settings, GMC : No warppoints
Format settings, Matrix : Default (MPEG)
Codec ID : XVID
Codec ID/Hint : XviD
Duration : 1h 26mn
Bit rate : 1 987 Kbps
Width : 720 pixels
Height : 400 pixels
Display aspect ratio : 16:9
Frame rate : 25.000 fps
Color space : YUV
Chroma subsampling : 4:2:0
Bit depth : 8 bits
Scan type : Progressive
Compression mode : Lossy
Bits/(Pixel*Frame) : 0.276
Stream size : 1.21 GiB (88%)
Writing library : XviD 73

Audio
ID : 1
Format : AC-3
Format/Info : Audio Coding 3
Mode extension : CM (complete main)
Format settings, Endianness : Big
Codec ID : 2000
Duration : 1h 26mn
Bit rate mode : Constant
Bit rate : 256 Kbps
Channel(s) : 6 channels
Channel positions : Front: L C R, Side: L R, LFE
Sampling rate : 48.0 KHz
Bit depth : 16 bits
Compression mode : Lossy
Stream size : 159 MiB (11%)
Alignment : Split accross interleaves
Interleave, duration : 40 ms (1.00 video frame)
Interleave, preload duration : 500 ms
pb.wtf



Скачать Почти замужем через торрент http://i3.imageban.ru/out/2014/01/31/27832832d7f24d1fa39b09919a167e4d.png Скачать фильм Почти замужем через торрент бесплантно в хорошем качестве Описание: Когда три подруги — Эрин, Кэйси и Стелла — узнают, что из-за бюрократической ошибки брак каждой из них теперь считается ... 9.8 10 25
Info! Золотая раздача, скачанное не засчитывается.
Торрент: Зарегистрирован [2014-01-30 20:23] · скачан: 895 раз
Статус: √ проверено
Размер: 1.37 GB
Как cкачать? Как скачать Почти замужем через торрент | UTorrent

28-11-2019 20:33  

Отключить всю рекламу на сайте

02-02-2014 19:22 Почти замужем Скачать торрент  

на 8-ку. легкий,девчачий. мне понравился фильм. спасибо.pb.wtf



    Дорогой пользователь! Огромная просьба, поблагодарите релизера, оцените раздачу и оставьте свои комментарий, если Вы скачали Почти замужем через торрент бесплатно! Внесите свою лепту в развитие PiratBit!
    Комментировать посты могут только пользователи прошедшие не сложную регистрацию
    Показать сообщения:    

    Почти замужем через торрент
    Скачать бесплатно Почти замужем
    Почти замужем скачать торрент
    Почти замужем смотреть онлайн
    Cкачать фильм Почти замужем бесплатно
    Почти замужем скачать торрент в хорошем качестве
    Почти замужем смотреть онлайн бесплатно в хорошем качестве


    Вы не можете начинать темы
    Вы не можете отвечать на сообщения
    Вы не можете редактировать свои сообщения
    Вы не можете удалять свои сообщения
    Вы не можете голосовать в опросах
    Вы не можете прикреплять файлы к сообщениям
    Вы можете скачивать файлы