Ссылка на приватное зеркало нашего сайта всего за 1$. Внимание количество ограничено!!!

2 сезон

iTunes

1 сезон

1

2 сезон

2 сезон

iTunes

1 сезон

RePack

30

Ultimate

ВАЖНО

ИГРА 18+

pack

RePack

MK11
pack

Забери бонус

RePack

jed

!!Акция!!

Alien_Rage

RePack

fifa19

RePack

Assassins Creed: Odyssey

RePack

NEED FOR SPEED™ PAYBACK

4 сезон

9 сезон

Бесстыжие 9 сезон

Все сериалы

все сериалы на PB.wtf

RePack

FAR CRY 5
  

Ладога (1-4 серии из 4) (Александр Велединский) [2013, Россия, военный, драма, HDTV 1080i] pb.wtf

Ладога через торрент pb.wtf

Размер: 8.08 GB | Добавлен: 6 лет 9 мес. назад | Торрент скачан:393 раза
Скачать  

30-01-2014 21:04 Ладога Скачать торрент  


Ладога


  • Год выпуска:2013
  • Страна:Россия
  • Жанр:военный, драма
  • Продолжительность: ~ 00:45:00 | Cерия
  • Перевод:Не требуется

  • Субтитры: Нет
    • Режиссер:Александр Велединский

  • В ролях: Ксения Раппопорт (Ольга), Алексей Серебряков (Сергиенко), Андрей Мерзликин (Максим Кирсанов), Дмитрий Назаров (Кулясов), Юрий Кузнецов (Савельич), Виталий Коваленко (Борисыч), Яков Шамшин (Лёнька), Филипп Ершов (Вася-Сила), Олег Фёдоров (Кольцов), Андрюс Паулавичюс (Римас Буткус), Алексей Ведерников (Катков), Юлия Ауг (Елена Кулясова)
    • Описание:
      Блокадный Ленинград. Зима 1942-го. Советская контрразведка узнает, что немцы готовят диверсию на «Дороге жизни» - единственном пути, по которому в город доставляется продовольствие и другие грузы. Скорее всего, диверсант - один из водителей «полуторок», работающих на замерзшем Ладожском озере. Найти и остановить врага должен капитан НКВД Сергиенко...

    • Качество:HDTV1080i
    • Формат: MPEG-TS
    • Видео кодек: AVC
    • Аудио кодек:AC3
    • Видео: AVC, 1920x1080 (16:9), 5377 kbps, 25 fps, Interlaced (Top Field First), 0,104 bpp
    • Аудио: русский / MPEG-1 Audio layer 2 / 2.0 / 48 kHz / 256 kbps / ||

    Код:

    General
    ID                                       : 1 (0x1)
    Complete name                            : D:ФильмыLadoga.HDTV.1080iLadoga.01.HDTV.1080i.ts
    Format                                   : MPEG-TS
    File size                                : 2.07 GiB
    Duration                                 : 49mn 55s
    Overall bit rate                         : 5 929 Kbps

    Video
    ID                                       : 1711 (0x6AF)
    Menu ID                                  : 1 (0x1)
    Format                                   : AVC
    Format/Info                              : Advanced Video Codec
    Format profile                           : Main@L4.0
    Format settings, CABAC                   : Yes
    Format settings, ReFrames                : 3 frames
    Format settings, GOP                     : M=4, N=32
    Codec ID                                 : 27
    Duration                                 : 49mn 55s
    Bit rate                                 : 5 377 Kbps
    Width                                    : 1 920 pixels
    Height                                   : 1 080 pixels
    Display aspect ratio                     : 16:9
    Frame rate                               : 25.000 fps
    Standard                                 : Component
    Color space                              : YUV
    Chroma subsampling                       : 4:2:0
    Bit depth                                : 8 bits
    Scan type                                : Interlaced
    Scan order                               : Top Field First
    Bits/(Pixel*Frame)                       : 0.104
    Stream size                              : 1.88 GiB (91%)
    Color primaries                          : BT.709-5, BT.1361, IEC 61966-2-4, SMPTE RP177
    Transfer characteristics                 : BT.709-5, BT.1361
    Matrix coefficients                      : BT.709-5, BT.1361, IEC 61966-2-4 709, SMPTE RP177

    Audio
    ID                                       : 1712 (0x6B0)
    Menu ID                                  : 1 (0x1)
    Format                                   : MPEG Audio
    Format version                           : Version 1
    Format profile                           : Layer 2
    Codec ID                                 : 3
    Duration                                 : 49mn 55s
    Bit rate mode                            : Constant
    Bit rate                                 : 256 Kbps
    Channel(s)                               : 2 channels
    Sampling rate                            : 48.0 KHz
    Compression mode                         : Lossy
    Stream size                              : 91.4 MiB (4%)
    Language                                 : Russian


    Скриншоты:

    Трейлеры к фильмам [2014]

    © Оформление by Vetal
    pb.wtf



  • Скачать Ладога через торрент http://i58.fastpic.ru/big/2013/0922/31/4683bcd4960801b02604b79f43d30631.png Скачать фильм Ладога через торрент бесплантно в хорошем качестве Описание:Блокадный Ленинград. Зима 1942-го. Советская контрразведка узнает, что немцы готовят диверсию на «Дороге жизни» - единственном ... 10 10 11
    Info! Золотая раздача, скачанное не засчитывается.
    Торрент: Зарегистрирован [2014-01-30 21:04] · скачан: 393 раз
    Статус: √ проверено
    Размер: 8.08 GB
    Как cкачать? Как скачать Ладога через торрент | qTorrent

    % Раздел Тема Автор DL S | L
    Наши сериалы [ 16.84 GB ] Ладога - дорога жизни / Серии: 1-4 из 4 [2014 военный HDTV 1080i] bober100 Скачать
    1 | 0
    Наши сериалы [ 4.05 GB ] Ладога / Серии: 1-4 из 4 [2014 военный WEB-DL 720p] bober100 Скачать
    1 | 0
    Наши фильмы (HD, WEB-DL 720p, 1080p) [ 7.39 GB ] Ладога - дорога жизни [2014 военный HDTVRip 720p] кэп Скачать
    1 | 0
    Наши сериалы [ 2.59 GB ] Ладога - дорога жизни /4 серия из 4 [2014 военный SATRip] кэп Скачать
    1 | 0
    Наши сериалы [ 2.45 GB ] Ладога - дорога жизни /04 из 04/ [2014 военный HDTVRip] Ворон Скачать
    1 | 0

    28-11-2019 20:33  

    Отключить всю рекламу на сайте

    30-01-2014 23:18 Ладога Скачать торрент  

    Raven писал(а):

    Ладога (1-4 серии из 4) (Александр Велединский) [2013, Россия, военный, драма, HDTV 1080i]

    Да... Какой же ты чермет ВЫДАЛ!?pb.wtf



      Дорогой пользователь! Огромная просьба, поблагодарите релизера, оцените раздачу и оставьте свои комментарий, если Вы скачали Ладога через торрент бесплатно! Внесите свою лепту в развитие PiratBit!
      Комментировать посты могут только пользователи прошедшие не сложную регистрацию
      Показать сообщения:    

      Ладога через торрент
      Скачать бесплатно Ладога
      Ладога скачать торрент
      Ладога смотреть онлайн
      Cкачать фильм Ладога бесплатно
      Ладога скачать торрент в хорошем качестве
      Ладога смотреть онлайн бесплатно в хорошем качестве


      Вы не можете начинать темы
      Вы не можете отвечать на сообщения
      Вы не можете редактировать свои сообщения
      Вы не можете удалять свои сообщения
      Вы не можете голосовать в опросах
      Вы не можете прикреплять файлы к сообщениям
      Вы можете скачивать файлы