2 сезон

iTunes

MVO

1

2 сезон

iTunes

iTunes

1 сезон

RePack

30

Ultimate

ВАЖНО

ИГРА 18+

pack

RePack

MK11
pack

Легкие деньги

RePack

jed

RePack

fifa19

RePack

RDR2

RePack

NEED FOR SPEED™ PAYBACK

4 сезон

9 сезон

Бесстыжие 9 сезон

Все сериалы

все сериалы на PB.wtf

RePack

FAR CRY 5

Anonymous, добрый день, мы не успеваем собрать деньги на оплату серверов за декабрь и январь, помогите нам пожалуйста в это трудное время. В качестве благодарности мы отключим Вам всю рекламу на сайте (укажите свой ник в строку Ваше имя)!

×
  
Magnet ссылка

Перед полуночью / Before Midnight (Ричард Линклейтер) [2013 г., драма, мелодрама, BDRip- AVC ]DVO+AVO[Михаил Чадов] pb.wtf

Перед полуночью через торрент pb.wtf

Размер: 2.53 GB | Добавлен: 6 лет 11 мес. назад | Торрент скачан:72 раза
Скачать  

31-01-2014 11:55 Перед полуночью Скачать торрент  

Перед полуночью / Before Midnight
Год выпуска: 2013
Страна: США
Жанр: драма, мелодрама,
Продолжительность: 109 мин. / 01:49
Перевод: Любительский двухголосый [Зоя Балецкая и Юрий Андреев]
Перевод 2: Одноголосый закадровый [Михаил Чадов]
Тип релиза: Английская версия - Лицензия, BDRip. Русская версия - любительский перевод.
Субтитры: английские, русские
Оригинальная аудиодорожка: английский отдельно

В ролях: Итан Хоук
Жюли Дельпи
Шеймас Дэви-Фицпатрик
Дженнифер Прайор
Шарлотта Прайор
Ксения Калогеропулу
Уолтер Лассали
Ариана Лабед
Яннис Пападопулос
Афина Рахель Цангари,

Режиссер: Ричард Линклейтер
Продюссер: Лиз Глоцер, Христос Константакопулос, Ричард Линклейтер, ...
Сценарий: Ричард Линклейтер, Жюли Дельпи, Итан Хоук, ...

Премьера в мире: 20 января 2013




Описание: Продолжение трилогии («Перед рассветом» (1995), «Перед закатом» (2004)) наблюдений за мужчиной и женщиной, любящих друг друга на протяжении многих лет.

Сейчас мы встречаем героев 9 лет спустя в Греции, куда они едут в гости к своим давним друзьям. Почти два десятилетия прошло с их первой встречи в поезде по пути в Вену. Как они преодолеют осень своих отношений?

Доп. информация: Перевод на русский язык: [Евгений Кудашев]
Pабота со звуковой дорожкой М.Чадова: [Perevodman]

Качество: BDRip
Формат: MKV
Видео кодек: H.264
Аудио кодек: AC3
Видео: AVC (H.264), 1040x560 (1,85:1 ), 23,9 fps, ~1971 kbps avg, 0.14 bit/pixel
Аудио#1: 48 kHz, AC3 Dolby Digital, 6ch, ~448 kbps DVO [Зоя Балецкая и Юрий Андреев]
Аудио#2: 48 kHz, AC3 Dolby Digital, 6ch, ~448 kbps VO [Михаил Чадов]
Аудио#3: 48 kHz, AC3 Dolby Digital, 6ch, ~448 kbps En [Original]





Формат : Matroska
Версия формата : Version 4 / Version 2
Размер файла : 2,18 Гбайт
Продолжительность : 1 ч. 48 м.
Общий поток : 2867 Кбит/сек
Дата кодирования : UTC 2013-11-29 15:16:28
Программа кодирования : mkvmerge v6.3.0 ('You can't stop me!') built on Jun 28 2013 20:09:41
Библиотека кодирования : libebml v1.3.0 + libmatroska v1.4.0

Видео
Идентификатор : 1
Формат : AVC
Формат/Информация : Advanced Video Codec
Профиль формата : High@L4.1
Параметр CABAC формата : Да
Параметр ReFrames формата : 14 кадров
Идентификатор кодека : V_MPEG4/ISO/AVC
Продолжительность : 1 ч. 48 м.
Битрейт : 1971 Кбит/сек
Ширина : 1040 пикселей
Высота : 560 пикселей
Соотношение сторон : 1,85:1
Режим частоты кадров : Постоянный
Частота кадров : 23,976 кадра/сек
Цветовое пространство : YUV
Субдискретизация насыщенности : 4:2:0
Битовая глубина : 8 бит
Тип развёртки : Прогрессивная
Бит/(Пиксели*Кадры) : 0.141
Размер потока : 1,46 Гбайт (67%)
Библиотека кодирования : x264 core 138 r2358 9e941d1
Настройки программы : cabac=1 / ref=14 / deblock=1:-2:-2 / analyse=0x3:0x133 / me=umh / subme=11 / psy=1 / psy_rd=1.00:0.10 / mixed_ref=1 / me_range=32 / chroma_me=1 / trellis=2 / 8x8dct=1 / cqm=0 / deadzone=21,11 / fast_pskip=1 / chroma_qp_offset=-3 / threads=6 / lookahead_threads=1 / sliced_threads=0 / nr=0 / decimate=1 / interlaced=0 / bluray_compat=0 / constrained_intra=0 / bframes=8 / b_pyramid=2 / b_adapt=2 / b_bias=0 / direct=3 / weightb=1 / open_gop=0 / weightp=2 / keyint=240 / keyint_min=22 / scenecut=40 / intra_refresh=0 / rc_lookahead=60 / rc=2pass / mbtree=1 / bitrate=1971 / ratetol=1.0 / qcomp=0.60 / qpmin=10 / qpmax=51 / qpstep=4 / cplxblur=20.0 / qblur=0.5 / vbv_maxrate=62500 / vbv_bufsize=78125 / nal_hrd=none / ip_ratio=1.40 / aq=1:1.00
Язык : English
Default : Да
Forced : Нет

Аудио #1
Идентификатор : 2
Формат : AC-3
Формат/Информация : Audio Coding 3
Расширение режима : CM (complete main)
Параметр Endianness формата : Big
Идентификатор кодека : A_AC3
Продолжительность : 1 ч. 48 м.
Вид битрейта : Постоянный
Битрейт : 448 Кбит/сек
Каналы : 6 каналов
Расположение каналов : Front: L C R, Side: L R, LFE
Частота : 48,0 КГц
Битовая глубина : 16 бит
Метод сжатия : С потерями
Размер потока : 349 Мбайт (16%)
Заголовок : DVO
Язык : Russian
Default : Да
Forced : Нет

Аудио #2
Идентификатор : 3
Формат : AC-3
Формат/Информация : Audio Coding 3
Расширение режима : CM (complete main)
Параметр Endianness формата : Big
Идентификатор кодека : A_AC3
Продолжительность : 1 ч. 48 м.
Вид битрейта : Постоянный
Битрейт : 448 Кбит/сек
Каналы : 6 каналов
Расположение каналов : Front: L C R, Side: L R, LFE
Частота : 48,0 КГц
Битовая глубина : 16 бит
Метод сжатия : С потерями
Размер потока : 349 Мбайт (16%)
Заголовок : VO
Язык : Russian
Default : Нет
Forced : Нет

Текст #1
Идентификатор : 4
Формат : UTF-8
Идентификатор кодека : S_TEXT/UTF8
Идентификатор кодека/Информация : UTF-8 Plain Text
Язык : Russian
Default : Нет
Forced : Нет

Текст #2
Идентификатор : 5
Формат : UTF-8
Идентификатор кодека : S_TEXT/UTF8
Идентификатор кодека/Информация : UTF-8 Plain Text
Язык : English
Default : Нет
Forced : Нет


Перед полуночью скачать торрент


pb.wtf



Скачать Перед полуночью через торрент http://i60.fastpic.ru/big/2013/1126/61/6a45bab143097479d1ceb71826a7c361.jpg Скачать фильм Перед полуночью через торрент бесплантно в хорошем качестве Описание: Продолжение трилогии («Перед рассветом» (1995), «Перед закатом» (2004)) наблюдений за мужчиной и женщиной, любящих друг друга на ... 10 10 6
Info! Золотая раздача, скачанное не засчитывается.
Торрент: Зарегистрирован [2014-01-31 11:55] · скачан: 72 раз
Статус: √ проверено
Размер: 2.53 GB
Как cкачать? Как скачать Перед полуночью через торрент | UTorrent

% Раздел Тема Автор DL S | L
Фильмы 2013 [DVDrip, WEB-DLRip, HDrip] [ 1.46 GB ] Перед полуночью / Before Midnight [2013 HDRip многоголосый] [Официальная озвучка] кэп Скачать
3 | 0
Фильмы с авторской озвучкой [ 1.46 GB ] Перед полуночью / Before Midnight [2013 BDRip Авторский одноголосый] coc900 Скачать
1 | 0

28-11-2019 20:33  

Отключить всю рекламу на сайте

    Дорогой пользователь! Огромная просьба, поблагодарите релизера, оцените раздачу и оставьте свои комментарий, если Вы скачали Перед полуночью через торрент бесплатно! Внесите свою лепту в развитие PiratBit!
    Комментировать посты могут только пользователи прошедшие не сложную регистрацию
    Показать сообщения:    

    Перед полуночью через торрент
    Скачать бесплатно Перед полуночью
    Перед полуночью скачать торрент
    Перед полуночью смотреть онлайн
    Cкачать фильм Перед полуночью бесплатно
    Перед полуночью скачать торрент в хорошем качестве
    Перед полуночью смотреть онлайн бесплатно в хорошем качестве


    Вы не можете начинать темы
    Вы не можете отвечать на сообщения
    Вы не можете редактировать свои сообщения
    Вы не можете удалять свои сообщения
    Вы не можете голосовать в опросах
    Вы не можете прикреплять файлы к сообщениям
    Вы можете скачивать файлы